  0
SECTION
  2
HEADER
  9
$ACADVER
  1
AC1015
  9
$ACADMAINTVER
 70
           6
  9
$DWGCODEPAGE
  3
ANSI_1252
  9
$INSBASE
 10
0.0
 20
0.0
 30
0.0
  9
$EXTMIN
 10
0.023833391891
 20
-0.7890640792
 30
0.0
  9
$EXTMAX
 10
3.91406409393
 20
2.315486475836
 30
0.0
  9
$LIMMIN
 10
-0.1706808672
 20
-0.7861630342
  9
$LIMMAX
 10
4.108578353
 20
2.5205372726
  9
$ORTHOMODE
 70
           0
  9
$REGENMODE
 70
           1
  9
$FILLMODE
 70
           1
  9
$QTEXTMODE
 70
           0
  9
$MIRRTEXT
 70
           1
  9
$LTSCALE
 40
1.0
  9
$ATTMODE
 70
           1
  9
$TEXTSIZE
 40
0.25
  9
$TRACEWID
 40
1.0
  9
$TEXTSTYLE
  7
STANDARD
  9
$CLAYER
  8
0
  9
$CELTYPE
  6
Continuous
  9
$CECOLOR
 62
           7
  9
$CELTSCALE
 40
1.0
  9
$DISPSILH
 70
           0
  9
$DIMSCALE
 40
1.0
  9
$DIMASZ
 40
0.05
  9
$DIMEXO
 40
0.06
  9
$DIMDLI
 40
0.375
  9
$DIMRND
 40
0.001
  9
$DIMDLE
 40
0.0
  9
$DIMEXE
 40
0.125
  9
$DIMTP
 40
0.0
  9
$DIMTM
 40
0.0
  9
$DIMTXT
 40
0.03
  9
$DIMCEN
 40
0.09
  9
$DIMTSZ
 40
0.0
  9
$DIMTOL
 70
           0
  9
$DIMLIM
 70
           0
  9
$DIMTIH
 70
           1
  9
$DIMTOH
 70
           1
  9
$DIMSE1
 70
           0
  9
$DIMSE2
 70
           0
  9
$DIMTAD
 70
           0
  9
$DIMZIN
 70
           0
  9
$DIMBLK
  1

  9
$DIMASO
 70
           0
  9
$DIMSHO
 70
           1
  9
$DIMPOST
  1
<>in
  9
$DIMAPOST
  1

  9
$DIMALT
 70
           0
  9
$DIMALTD
 70
           2
  9
$DIMALTF
 40
1.0
  9
$DIMLFAC
 40
1.0
  9
$DIMTOFL
 70
           1
  9
$DIMTVP
 40
0.0
  9
$DIMTIX
 70
           1
  9
$DIMSOXD
 70
           0
  9
$DIMSAH
 70
           0
  9
$DIMBLK1
  1

  9
$DIMBLK2
  1

  9
$DIMSTYLE
  2
STANDARD
  9
$DIMCLRD
 70
           7
  9
$DIMCLRE
 70
           7
  9
$DIMCLRT
 70
           7
  9
$DIMTFAC
 40
1.0
  9
$DIMGAP
 40
0.0625
  9
$DIMJUST
 70
           0
  9
$DIMSD1
 70
           0
  9
$DIMSD2
 70
           0
  9
$DIMTOLJ
 70
           1
  9
$DIMTZIN
 70
           0
  9
$DIMALTZ
 70
           0
  9
$DIMALTTZ
 70
           0
  9
$DIMUPT
 70
           0
  9
$DIMDEC
 70
           3
  9
$DIMTDEC
 70
           3
  9
$DIMALTU
 70
           2
  9
$DIMALTTD
 70
           2
  9
$DIMTXSTY
  7
STANDARD
  9
$DIMAUNIT
 70
           0
  9
$DIMADEC
 70
           3
  9
$DIMALTRND
 40
0.0
  9
$DIMAZIN
 70
           0
  9
$DIMDSEP
 70
           0
  9
$DIMATFIT
 70
           0
  9
$DIMFRAC
 70
           0
  9
$DIMLDRBLK
  1

  9
$DIMLUNIT
 70
           2
  9
$DIMLWD
 70
           0
  9
$DIMLWE
 70
           0
  9
$DIMTMOVE
 70
           0
  9
$LUNITS
 70
           2
  9
$LUPREC
 70
           2
  9
$SKETCHINC
 40
1.0
  9
$FILLETRAD
 40
1.0
  9
$AUNITS
 70
           0
  9
$AUPREC
 70
           2
  9
$MENU
  1
acad
  9
$ELEVATION
 40
0.0
  9
$PELEVATION
 40
0.0
  9
$THICKNESS
 40
0.0
  9
$LIMCHECK
 70
           0
  9
$CHAMFERA
 40
0.0
  9
$CHAMFERB
 40
0.0
  9
$CHAMFERC
 40
0.0
  9
$CHAMFERD
 40
0.0
  9
$SKPOLY
 70
           0
  9
$TDCREATE
 40
0.000000000
  9
$TDUCREATE
 40
0.000000000
  9
$TDUPDATE
 40
2449702.667959363
  9
$TDUUPDATE
 40
0.000000000
  9
$TDINDWG
 40
0.0000000000
  9
$TDUSRTIMER
 40
0.0000000000
  9
$USRTIMER
 70
           1
  9
$ANGBASE
 50
0.0
  9
$ANGDIR
 70
           0
  9
$PDMODE
 70
           0
  9
$PDSIZE
 40
0.0
  9
$PLINEWID
 40
0.0
  9
$SPLFRAME
 70
           0
  9
$SPLINETYPE
 70
           5
  9
$SPLINESEGS
 70
          20
  9
$HANDSEED
  5
2CF
  9
$SURFTAB1
 70
           6
  9
$SURFTAB2
 70
           6
  9
$SURFTYPE
 70
           6
  9
$SURFU
 70
           6
  9
$SURFV
 70
           6
  9
$UCSBASE
  2

  9
$UCSNAME
  2

  9
$UCSORG
 10
0.0
 20
0.0
 30
0.0
  9
$UCSXDIR
 10
1.0
 20
0.0
 30
0.0
  9
$UCSYDIR
 10
0.0
 20
1.0
 30
0.0
  9
$UCSORTHOREF
  2

  9
$UCSORTHOVIEW
 70
           0
  9
$UCSORGTOP
 10
0.0
 20
0.0
 30
0.0
  9
$UCSORGBOTTOM
 10
0.0
 20
0.0
 30
0.0
  9
$UCSORGLEFT
 10
0.0
 20
0.0
 30
0.0
  9
$UCSORGRIGHT
 10
0.0
 20
0.0
 30
0.0
  9
$UCSORGFRONT
 10
0.0
 20
0.0
 30
0.0
  9
$UCSORGBACK
 10
0.0
 20
0.0
 30
0.0
  9
$PUCSBASE
  2

  9
$PUCSNAME
  2

  9
$PUCSORG
 10
0.0
 20
0.0
 30
0.0
  9
$PUCSXDIR
 10
1.0
 20
0.0
 30
0.0
  9
$PUCSYDIR
 10
0.0
 20
1.0
 30
0.0
  9
$PUCSORTHOREF
  2

  9
$PUCSORTHOVIEW
 70
           0
  9
$PUCSORGTOP
 10
0.0
 20
0.0
 30
0.0
  9
$PUCSORGBOTTOM
 10
0.0
 20
0.0
 30
0.0
  9
$PUCSORGLEFT
 10
0.0
 20
0.0
 30
0.0
  9
$PUCSORGRIGHT
 10
0.0
 20
0.0
 30
0.0
  9
$PUCSORGFRONT
 10
0.0
 20
0.0
 30
0.0
  9
$PUCSORGBACK
 10
0.0
 20
0.0
 30
0.0
  9
$USERI1
 70
           0
  9
$USERI2
 70
           0
  9
$USERI3
 70
           0
  9
$USERI4
 70
           0
  9
$USERI5
 70
           0
  9
$USERR1
 40
0.0
  9
$USERR2
 40
0.0
  9
$USERR3
 40
0.0
  9
$USERR4
 40
0.0
  9
$USERR5
 40
0.0
  9
$WORLDVIEW
 70
           1
  9
$SHADEDGE
 70
           3
  9
$SHADEDIF
 70
          70
  9
$TILEMODE
 70
           1
  9
$MAXACTVP
 70
          16
  9
$PINSBASE
 10
0.0
 20
0.0
 30
0.0
  9
$PLIMCHECK
 70
           0
  9
$PEXTMIN
 10
0.0
 20
0.0
 30
0.0
  9
$PEXTMAX
 10
0.0
 20
0.0
 30
0.0
  9
$PLIMMIN
 10
0.0
 20
0.0
  9
$PLIMMAX
 10
0.0
 20
0.0
  9
$UNITMODE
 70
           0
  9
$VISRETAIN
 70
           0
  9
$PLINEGEN
 70
           1
  9
$PSLTSCALE
 70
           1
  9
$TREEDEPTH
 70
        3020
  9
$CMLSTYLE
  2
STANDARD
  9
$CMLJUST
 70
           0
  9
$CMLSCALE
 40
1.0
  9
$PROXYGRAPHICS
 70
           0
  9
$MEASUREMENT
 70
           0
  9
$CELWEIGHT
370
           0
  9
$ENDCAPS
280
           0
  9
$JOINSTYLE
280
           0
  9
$LWDISPLAY
290
           0
  9
$INSUNITS
 70
           0
  9
$HYPERLINKBASE
  1

  9
$STYLESHEET
  1

  9
$XEDIT
290
           1
  9
$CEPSNTYPE
380
           0
  9
$PSTYLEMODE
290
           1
  9
$FINGERPRINTGUID
  2

  9
$VERSIONGUID
  2

  9
$EXTNAMES
290
           1
  9
$PSVPSCALE
 40
0.0
  0
ENDSEC
  0
SECTION
  2
CLASSES
  0
CLASS
  1
LWPOLYLINE
  2
AcDbPolyline
  3
AutoCAD 2000
 90
        0
280
           0
281
           1
  0
CLASS
  1
IMAGE
  2
AcDbRasterImage
  3
ISM
 90
    32895
280
           0
281
           1
  0
CLASS
  1
OLE2FRAME
  2
AcDbOle2Frame
  3
AutoCAD 2000
 90
    32768
280
           0
281
           1
  0
CLASS
  1
HATCH
  2
AcDbHatch
  3
AutoCAD 2000
 90
        0
280
           0
281
           1
  0
CLASS
  1
DICTIONARYVAR
  2
AcDbDictionaryVar
  3
AutoCAD 2000
 90
    32768
280
           0
281
           0
  0
CLASS
  1
RASTERVARIABLES
  2
AcDbRasterVariables
  3
ISM
 90
    32768
280
           0
281
           0
  0
CLASS
  1
IMAGEDEF
  2
AcDbRasterImageDef
  3
ISM
 90
    32768
280
           0
281
           0
  0
CLASS
  1
IMAGEDEF_REACTOR
  2
AcDbRasterImageDefReactor
  3
ISM
 90
    32769
280
           0
281
           0
  0
CLASS
  1
IDBUFFER
  2
AcDbIdBuffer
  3
AutoCAD 2000
 90
    32768
280
           0
281
           0
  0
CLASS
  1
SPATIAL_FILTER
  2
AcDbSpatialFilter
  3
AutoCAD 2000
 90
    32768
280
           0
281
           0
  0
CLASS
  1
XRECORD
  2
AcDbXrecord
  3
AutoCAD 2000
 90
    32768
280
           0
281
           0
  0
CLASS
  1
SORTENTSTABLE
  2
AcDbSortentsTable
  3
AutoCAD 2000
 90
    32768
280
           0
281
           0
  0
CLASS
  1
LAYER_INDEX
  2
AcDbLayerIndex
  3
AutoCAD 2000
 90
    32768
280
           0
281
           0
  0
CLASS
  1
SPATIAL_INDEX
  2
AcDbSpatialIndex
  3
AutoCAD 2000
 90
    32768
280
           0
281
           0
  0
CLASS
  1
OBJECT_PTR
  2
CAseDLPNTableRecord
  3
"ASE-LPNTableRecord"
 90
    32769
280
           0
281
           0
  0
CLASS
  1
LAYOUT
  2
AcDbLayout
  3
AutoCAD 2000
 90
        0
280
           0
281
           0
  0
CLASS
  1
PLOTSETTINGS
  2
AcDbPlotSettings
  3
AutoCAD 2000
 90
    32768
280
           0
281
           0
  0
CLASS
  1
ACDBDICTIONARYWDFLT
  2
AcDbDictionaryWithDefault
  3
AutoCAD 2000
 90
        0
280
           0
281
           0
  0
CLASS
  1
ACDBPLACEHOLDER
  2
AcDbPlaceHolder
  3
AutoCAD 2000
 90
        0
280
           0
281
           0
  0
ENDSEC
  0
SECTION
  2
TABLES
  0
TABLE
  2
VPORT
  5
7
100
AcDbSymbolTable
 70
           1
  0
VPORT
  5
15
100
AcDbSymbolTableRecord
100
AcDbViewportTableRecord
  2
*ACTIVE
 70
           0
 10
0.0
 20
0.0
 11
1.0
 21
1.0
 12
0.0
 22
0.0
 13
0.0
 23
0.0
 14
0.5
 24
0.5
 15
0.5
 25
0.5
 16
0.0
 26
0.0
 36
1.0
 17
1.741633440135
 27
1.513032451781
 37
0.0
 40
1.4025008112
 41
1.545108005083
 42
50.0
 43
0.0
 44
0.0
 50
0.0
 51
0.0
 71
           0
 72
         100
 73
           1
 74
           1
 75
           0
 76
           0
 77
           0
 78
           0
281
           0
 65
           0
110
0.0
120
0.0
130
0.0
111
1.0
121
0.0
131
0.0
112
0.0
122
1.0
132
0.0
345
0
346
0
 79
           0
146
0.0
  0
ENDTAB
  0
TABLE
  2
LTYPE
  5
4
100
AcDbSymbolTable
 70
          15
  0
LTYPE
  5
11
100
AcDbSymbolTableRecord
100
AcDbLinetypeTableRecord
  2
ByBlock
 70
          64
  3

 72
          65
 73
           0
 40
0.0
  0
LTYPE
  5
12
100
AcDbSymbolTableRecord
100
AcDbLinetypeTableRecord
  2
ByLayer
 70
          64
  3

 72
          65
 73
           0
 40
0.0
  0
LTYPE
  5
13
100
AcDbSymbolTableRecord
100
AcDbLinetypeTableRecord
  2
Continuous
 70
          64
  3
Solid line
 72
          65
 73
           0
 40
0.0
  0
LTYPE
  5
24
100
AcDbSymbolTableRecord
100
AcDbLinetypeTableRecord
  2
BORDER
 70
           0
  3
BORDER
 72
          65
 73
           6
 40
1.75
 49
0.5
 74
           0
 49
-0.25
 74
           0
 49
0.5
 74
           0
 49
-0.25
 74
           0
 49
0.0
 74
           0
 49
-0.25
 74
           0
  0
LTYPE
  5
25
100
AcDbSymbolTableRecord
100
AcDbLinetypeTableRecord
  2
CENTER
 70
           0
  3
CENTER
 72
          65
 73
           4
 40
2.0
 49
1.25
 74
           0
 49
-0.25
 74
           0
 49
0.25
 74
           0
 49
-0.25
 74
           0
  0
LTYPE
  5
26
100
AcDbSymbolTableRecord
100
AcDbLinetypeTableRecord
  2
DASHDOT
 70
           0
  3
DASHDOT
 72
          65
 73
           4
 40
1.0
 49
0.5
 74
           0
 49
-0.25
 74
           0
 49
0.0
 74
           0
 49
-0.25
 74
           0
  0
LTYPE
  5
27
100
AcDbSymbolTableRecord
100
AcDbLinetypeTableRecord
  2
DASHED
 70
           0
  3
DASHED
 72
          65
 73
           2
 40
0.75
 49
0.5
 74
           0
 49
-0.25
 74
           0
  0
LTYPE
  5
28
100
AcDbSymbolTableRecord
100
AcDbLinetypeTableRecord
  2
DIVIDE
 70
           0
  3
DIVIDE
 72
          65
 73
           6
 40
1.25
 49
0.5
 74
           0
 49
-0.25
 74
           0
 49
0.0
 74
           0
 49
-0.25
 74
           0
 49
0.0
 74
           0
 49
-0.25
 74
           0
  0
LTYPE
  5
29
100
AcDbSymbolTableRecord
100
AcDbLinetypeTableRecord
  2
DOT
 70
           0
  3
DOT
 72
          65
 73
           2
 40
0.25
 49
0.0
 74
           0
 49
-0.25
 74
           0
  0
LTYPE
  5
2A
100
AcDbSymbolTableRecord
100
AcDbLinetypeTableRecord
  2
HIDDEN
 70
           0
  3
HIDDEN
 72
          65
 73
           2
 40
0.375
 49
0.25
 74
           0
 49
-0.125
 74
           0
  0
LTYPE
  5
2B
100
AcDbSymbolTableRecord
100
AcDbLinetypeTableRecord
  2
PHANTOM
 70
           0
  3
PHANTOM
 72
          65
 73
           6
 40
2.5
 49
1.25
 74
           0
 49
-0.25
 74
           0
 49
0.25
 74
           0
 49
-0.25
 74
           0
 49
0.25
 74
           0
 49
-0.25
 74
           0
  0
LTYPE
  5
2C
100
AcDbSymbolTableRecord
100
AcDbLinetypeTableRecord
  2
$INVISIBLE
 70
           0
  3
$INVISIBLE
 72
          65
 73
           2
 40
200.0
 49
-100.0
 74
           0
 49
-100.0
 74
           0
  0
LTYPE
  5
2D
100
AcDbSymbolTableRecord
100
AcDbLinetypeTableRecord
  2
$SNAPEXT
 70
           0
  3
$SNAPEXT
 72
          65
 73
           2
 40
0.04
 49
0.02
 74
           0
 49
-0.02
 74
           0
  0
LTYPE
  5
2E
100
AcDbSymbolTableRecord
100
AcDbLinetypeTableRecord
  2
$AUXILIARY
 70
           0
  3
$AUXILIARY
 72
          65
 73
           2
 40
0.1
 49
0.05
 74
           0
 49
-0.05
 74
           0
  0
LTYPE
  5
2F
100
AcDbSymbolTableRecord
100
AcDbLinetypeTableRecord
  2
$CONSTRUCTION
 70
           0
  3
$CONSTRUCTION
 72
          65
 73
           4
 40
0.3
 49
0.2
 74
           0
 49
-0.05
 74
           0
 49
0.0
 74
           0
 49
-0.05
 74
           0
  0
ENDTAB
  0
TABLE
  2
LAYER
  5
2
100
AcDbSymbolTable
 70
           3
  0
LAYER
  5
14
100
AcDbSymbolTableRecord
100
AcDbLayerTableRecord
  2
0
 70
           0
 62
           7
  6
Continuous
290
           1
370
           0
390
0
1001
TCAD
1000
TCW_LAYER_ORDER
1002
{
1071
        0
1002
}
  0
LAYER
  5
30
100
AcDbSymbolTableRecord
100
AcDbLayerTableRecord
  2
$CONSTRUCTION
 70
           0
 62
           9
  6
$CONSTRUCTION
290
           1
370
           0
390
0
1001
TCAD
1000
TCW_LAYER_ORDER
1002
{
1071
        0
1002
}
  0
LAYER
  5
31
100
AcDbSymbolTableRecord
100
AcDbLayerTableRecord
  2
Center Line
 70
           0
 62
           1
  6
CENTER
290
           1
370
           0
390
0
1001
TCAD
1000
TCW_LAYER_ORDER
1002
{
1071
        0
1002
}
  0
ENDTAB
  0
TABLE
  2
STYLE
  5
3
100
AcDbSymbolTable
 70
           1
  0
STYLE
  5
17
100
AcDbSymbolTableRecord
100
AcDbTextStyleTableRecord
  2
STANDARD
 70
           0
 40
0.0
 41
1.0
 50
0.0
 71
           0
 42
0.15000000596
  3
TIMES.TTF
  4

1001
ACAD
1000
Times New Roman
1071
      290
  0
ENDTAB
  0
TABLE
  2
VIEW
  5
5
100
AcDbSymbolTable
 70
           1
  0
VIEW
  5
32
100
AcDbSymbolTableRecord
100
AcDbViewTableRecord
  2
View_0
 70
           0
 40
8.267716407776
 10
5.84645652771
 20
4.133858203888
 41
11.69291305542
 11
0.0
 21
0.0
 31
1.0
 12
0.0
 22
0.0
 32
0.0
 42
92.090490233612
 43
0.0
 44
0.0
 50
0.0
 71
           0
281
           0
 72
           0
110
0.0
120
0.0
130
0.0
111
1.0
121
0.0
131
0.0
112
0.0
122
1.0
132
0.0
  0
ENDTAB
  0
TABLE
  2
UCS
  5
6
100
AcDbSymbolTable
 70
           0
  0
ENDTAB
  0
TABLE
  2
APPID
  5
8
100
AcDbSymbolTable
 70
           2
  0
APPID
  5
16
100
AcDbSymbolTableRecord
100
AcDbRegAppTableRecord
  2
ACAD
 70
           0
  0
APPID
  5
23
100
AcDbSymbolTableRecord
100
AcDbRegAppTableRecord
  2
TCAD
 70
           0
  0
ENDTAB
  0
TABLE
  2
DIMSTYLE
  5
9
100
AcDbSymbolTable
 70
           1
100
AcDbDimStyleTable
 71
           0
  0
DIMSTYLE
105
18
100
AcDbSymbolTableRecord
100
AcDbDimStyleTableRecord
  2
STANDARD
 70
           0
  3
<>in
  4

 40
1.0
 41
0.05
 42
0.06
 43
0.375
 44
0.125
 45
0.001
 46
0.0
 47
0.0
 48
0.0
 71
           0
 72
           0
 73
           1
 74
           1
 75
           0
 76
           0
 77
           0
 78
           0
 79
           0
140
0.03
141
0.09
142
0.0
143
1.0
144
1.0
145
0.0
146
1.0
147
0.0625
148
0.01
170
           0
171
           2
172
           1
173
           0
174
           1
175
           0
176
           7
177
           7
178
           7
179
           3
271
           3
272
           3
273
           2
274
           2
275
           0
276
           0
277
           2
278
          46
279
           0
280
           0
281
           0
282
           0
283
           1
284
           0
285
           0
286
           0
288
           0
340
17
341
0
342
0
343
0
344
0
371
          -2
372
          -2
  0
ENDTAB
  0
TABLE
  2
BLOCK_RECORD
  5
1
100
AcDbSymbolTable
 70
          17
  0
BLOCK_RECORD
  5
A
100
AcDbSymbolTableRecord
100
AcDbBlockTableRecord
  2
*MODEL_SPACE
340
2CD
  0
BLOCK_RECORD
  5
B
100
AcDbSymbolTableRecord
100
AcDbBlockTableRecord
  2
*PAPER_SPACE
340
2CE
  0
BLOCK_RECORD
  5
183
100
AcDbSymbolTableRecord
100
AcDbBlockTableRecord
  2
*D0
340
0
  0
BLOCK_RECORD
  5
191
100
AcDbSymbolTableRecord
100
AcDbBlockTableRecord
  2
*D1
340
0
  0
BLOCK_RECORD
  5
19F
100
AcDbSymbolTableRecord
100
AcDbBlockTableRecord
  2
*D2
340
0
  0
BLOCK_RECORD
  5
1AC
100
AcDbSymbolTableRecord
100
AcDbBlockTableRecord
  2
*D3
340
0
  0
BLOCK_RECORD
  5
1BC
100
AcDbSymbolTableRecord
100
AcDbBlockTableRecord
  2
*D4
340
0
  0
BLOCK_RECORD
  5
1D5
100
AcDbSymbolTableRecord
100
AcDbBlockTableRecord
  2
*D5
340
0
  0
BLOCK_RECORD
  5
1E4
100
AcDbSymbolTableRecord
100
AcDbBlockTableRecord
  2
*D6
340
0
  0
BLOCK_RECORD
  5
1F8
100
AcDbSymbolTableRecord
100
AcDbBlockTableRecord
  2
*D7
340
0
  0
BLOCK_RECORD
  5
211
100
AcDbSymbolTableRecord
100
AcDbBlockTableRecord
  2
*D8
340
0
  0
BLOCK_RECORD
  5
22D
100
AcDbSymbolTableRecord
100
AcDbBlockTableRecord
  2
*D9
340
0
  0
BLOCK_RECORD
  5
256
100
AcDbSymbolTableRecord
100
AcDbBlockTableRecord
  2
*D10
340
0
  0
BLOCK_RECORD
  5
266
100
AcDbSymbolTableRecord
100
AcDbBlockTableRecord
  2
*D11
340
0
  0
BLOCK_RECORD
  5
277
100
AcDbSymbolTableRecord
100
AcDbBlockTableRecord
  2
*D12
340
0
  0
BLOCK_RECORD
  5
284
100
AcDbSymbolTableRecord
100
AcDbBlockTableRecord
  2
*D13
340
0
  0
BLOCK_RECORD
  5
291
100
AcDbSymbolTableRecord
100
AcDbBlockTableRecord
  2
*D14
340
0
  0
BLOCK_RECORD
  5
2A4
100
AcDbSymbolTableRecord
100
AcDbBlockTableRecord
  2
*D15
340
0
  0
BLOCK_RECORD
  5
2BB
100
AcDbSymbolTableRecord
100
AcDbBlockTableRecord
  2
*D16
340
0
  0
ENDTAB
  0
ENDSEC
  0
SECTION
  2
BLOCKS
  0
BLOCK
  5
D
100
AcDbEntity
  8
0
100
AcDbBlockBegin
  2
*MODEL_SPACE
 70
           0
 10
0.0
 20
0.0
 30
0.0
  3
*MODEL_SPACE
  1

  0
ENDBLK
  5
E
100
AcDbEntity
  8
0
100
AcDbBlockEnd
  0
BLOCK
  5
F
100
AcDbEntity
 67
           1
  8
0
100
AcDbBlockBegin
  2
*PAPER_SPACE
 70
           0
 10
0.0
 20
0.0
 30
0.0
  3
*PAPER_SPACE
  1

  0
ENDBLK
  5
10
100
AcDbEntity
 67
           1
  8
0
100
AcDbBlockEnd
  0
BLOCK
  5
184
100
AcDbEntity
  8
0
100
AcDbBlockBegin
  2
*D0
 70
           1
 10
0.0
 20
0.0
 30
0.0
  3
*D0
  1

  0
LINE
  5
185
100
AcDbEntity
  8
0
370
           0
  6
Continuous
 62
           7
100
AcDbLine
 10
2.3828130152
 20
0.3021865704
 30
0.0
 11
2.3828130152
 21
0.5078115368
 31
0.0
1001
TCAD
1000
TCW_ATTRIBUTE
1002
{
1000
<0.062>
1002
}
  0
LINE
  5
186
100
AcDbEntity
  8
0
370
           0
  6
Continuous
 62
           7
100
AcDbLine
 10
2.4453130152
 20
0.3021865704
 30
0.0
 11
2.4453130152
 21
0.5078115368
 31
0.0
1001
TCAD
1000
TCW_ATTRIBUTE
1002
{
1000
<0.062>
1002
}
  0
LWPOLYLINE
  5
187
100
AcDbEntity
  8
0
370
           0
  6
Continuous
 62
           7
100
AcDbPolyline
 90
        2
 70
           0
 10
2.2828130152
 20
0.3828115368
 10
2.3328130152
 20
0.3828115368
1001
TCAD
1000
TCW_ATTRIBUTE
1002
{
1000
<0.062>
1002
}
  0
LWPOLYLINE
  5
188
100
AcDbEntity
  8
0
370
           0
  6
Continuous
 62
           7
100
AcDbPolyline
 90
        2
 70
           0
 10
2.3828130152
 20
0.3828115368
 40
0.0
 41
0.0
 10
2.4453130152
 20
0.3828115368
 40
0.0
 41
0.0
1001
TCAD
1000
TCW_ATTRIBUTE
1002
{
1000
<0.062>
1002
}
  0
LWPOLYLINE
  5
189
100
AcDbEntity
  8
0
370
           0
  6
Continuous
 62
           7
100
AcDbPolyline
 90
        3
 70
           0
 10
2.5953130152
 20
0.3828115368
 10
2.5453130152
 20
0.3828115368
 10
2.4953130152
 20
0.3828115368
1001
TCAD
1000
TCW_ATTRIBUTE
1002
{
1000
<0.062>
1002
}
  0
LWPOLYLINE
  5
18B
102
{ACAD_REACTORS
330
18A
102
}
100
AcDbEntity
  8
0
370
           0
  6
Continuous
 62
           7
100
AcDbPolyline
 90
        4
 70
           0
 10
2.4453130152
 20
0.3828115368
 10
2.4953130152
 20
0.3763115368
 10
2.4953130152
 20
0.3893115368
 10
2.4453130152
 20
0.3828115368
1001
TCAD
1000
TCW_ATTRIBUTE
1002
{
1000
<0.062>
1002
}
  0
HATCH
  5
18A
100
AcDbEntity
  8
0
  6
Continuous
 62
           7
100
AcDbHatch
 10
0.0
 20
0.0
 30
0.0
210
0.0
220
0.0
230
1.0
  2
SOLID
 70
           1
 71
           1
 91
        1
 92
        3
 72
           0
 73
           1
 93
        3
 10
2.4453130152
 20
0.3828115367999998
 10
2.4953130151999998
 20
0.3763115367999998
 10
2.4953130151999998
 20
0.3893115367999998
 97
        1
330
18B
 75
           0
 76
           0
 98
        0
1001
TCAD
1000
TCW_ATTRIBUTE
1002
{
1000
<0.062>
1002
}
  0
LWPOLYLINE
  5
18D
102
{ACAD_REACTORS
330
18C
102
}
100
AcDbEntity
  8
0
370
           0
  6
Continuous
 62
           7
100
AcDbPolyline
 90
        4
 70
           0
 10
2.3828130152
 20
0.3828115368
 10
2.3328130152
 20
0.3893115368
 10
2.3328130152
 20
0.3763115368
 10
2.3828130152
 20
0.3828115368
1001
TCAD
1000
TCW_ATTRIBUTE
1002
{
1000
<0.062>
1002
}
  0
HATCH
  5
18C
100
AcDbEntity
  8
0
  6
Continuous
 62
           7
100
AcDbHatch
 10
0.0
 20
0.0
 30
0.0
210
0.0
220
0.0
230
1.0
  2
SOLID
 70
           1
 71
           1
 91
        1
 92
        3
 72
           0
 73
           1
 93
        3
 10
2.3828130152
 20
0.3828115367999998
 10
2.3328130152000002
 20
0.3893115367999998
 10
2.3328130152000002
 20
0.3763115367999998
 97
        1
330
18D
 75
           0
 76
           0
 98
        0
1001
TCAD
1000
TCW_ATTRIBUTE
1002
{
1000
<0.062>
1002
}
  0
MTEXT
  5
18E
100
AcDbEntity
  8
0
  6
Continuous
 62
           7
100
AcDbMText
 10
2.726166190822
 20
0.3828115368
 30
0.0
 40
0.030000000447
 41
0.0
 71
           5
 72
           1
  1
\A1;0.062{}in
 73
           1
 44
1.0
1001
TCAD
1000
TCW_REFPOINT
1002
{
1010
2.726166190822
1020
0.3828115368
1030
0.0
1002
}
1000
TCW_ATTRIBUTE
1002
{
1000
<0.062>
1002
}
  0
ENDBLK
  5
18F
100
AcDbEntity
  8
0
100
AcDbBlockEnd
  0
BLOCK
  5
192
100
AcDbEntity
  8
0
100
AcDbBlockBegin
  2
*D1
 70
           1
 10
0.0
 20
0.0
 30
0.0
  3
*D1
  1

  0
LINE
  5
193
100
AcDbEntity
  8
0
370
           0
  6
Continuous
 62
           7
100
AcDbLine
 10
2.3828130376
 20
0.2865615592
 30
0.0
 11
2.3828130376
 21
0.6953115592
 31
0.0
1001
TCAD
1000
TCW_ATTRIBUTE
1002
{
1000
<0.125>
1002
}
  0
LINE
  5
194
100
AcDbEntity
  8
0
370
           0
  6
Continuous
 62
           7
100
AcDbLine
 10
2.5078130376
 20
0.2865615592
 30
0.0
 11
2.5078130376
 21
0.6953115592
 31
0.0
1001
TCAD
1000
TCW_ATTRIBUTE
1002
{
1000
<0.125>
1002
}
  0
LWPOLYLINE
  5
195
100
AcDbEntity
  8
0
370
           0
  6
Continuous
 62
           7
100
AcDbPolyline
 90
        2
 70
           0
 10
2.2828130376
 20
0.5703115592
 10
2.3328130376
 20
0.5703115592
1001
TCAD
1000
TCW_ATTRIBUTE
1002
{
1000
<0.125>
1002
}
  0
LWPOLYLINE
  5
196
100
AcDbEntity
  8
0
370
           0
  6
Continuous
 62
           7
100
AcDbPolyline
 90
        2
 70
           0
 10
2.3828130376
 20
0.5703115592
 40
0.0
 41
0.0
 10
2.5078130376
 20
0.5703115592
 40
0.0
 41
0.0
1001
TCAD
1000
TCW_ATTRIBUTE
1002
{
1000
<0.125>
1002
}
  0
LWPOLYLINE
  5
197
100
AcDbEntity
  8
0
370
           0
  6
Continuous
 62
           7
100
AcDbPolyline
 90
        3
 70
           0
 10
2.6578130376
 20
0.5703115592
 10
2.6078130376
 20
0.5703115592
 10
2.5578130376
 20
0.5703115592
1001
TCAD
1000
TCW_ATTRIBUTE
1002
{
1000
<0.125>
1002
}
  0
LWPOLYLINE
  5
199
102
{ACAD_REACTORS
330
198
102
}
100
AcDbEntity
  8
0
370
           0
  6
Continuous
 62
           7
100
AcDbPolyline
 90
        4
 70
           0
 10
2.5078130376
 20
0.5703115592
 10
2.5578130376
 20
0.5638115592
 10
2.5578130376
 20
0.5768115592
 10
2.5078130376
 20
0.5703115592
1001
TCAD
1000
TCW_ATTRIBUTE
1002
{
1000
<0.125>
1002
}
  0
HATCH
  5
198
100
AcDbEntity
  8
0
  6
Continuous
 62
           7
100
AcDbHatch
 10
0.0
 20
0.0
 30
0.0
210
0.0
220
0.0
230
1.0
  2
SOLID
 70
           1
 71
           1
 91
        1
 92
        3
 72
           0
 73
           1
 93
        3
 10
2.5078130376000001
 20
0.5703115591999999
 10
2.5578130375999999
 20
0.5638115591999999
 10
2.5578130375999999
 20
0.5768115591999998
 97
        1
330
199
 75
           0
 76
           0
 98
        0
1001
TCAD
1000
TCW_ATTRIBUTE
1002
{
1000
<0.125>
1002
}
  0
LWPOLYLINE
  5
19B
102
{ACAD_REACTORS
330
19A
102
}
100
AcDbEntity
  8
0
370
           0
  6
Continuous
 62
           7
100
AcDbPolyline
 90
        4
 70
           0
 10
2.3828130376
 20
0.5703115592
 10
2.3328130376
 20
0.5768115592
 10
2.3328130376
 20
0.5638115592
 10
2.3828130376
 20
0.5703115592
1001
TCAD
1000
TCW_ATTRIBUTE
1002
{
1000
<0.125>
1002
}
  0
HATCH
  5
19A
100
AcDbEntity
  8
0
  6
Continuous
 62
           7
100
AcDbHatch
 10
0.0
 20
0.0
 30
0.0
210
0.0
220
0.0
230
1.0
  2
SOLID
 70
           1
 71
           1
 91
        1
 92
        3
 72
           0
 73
           1
 93
        3
 10
2.3828130376000001
 20
0.5703115591999999
 10
2.3328130376000002
 20
0.5768115591999998
 10
2.3328130376000002
 20
0.5638115591999999
 97
        1
330
19B
 75
           0
 76
           0
 98
        0
1001
TCAD
1000
TCW_ATTRIBUTE
1002
{
1000
<0.125>
1002
}
  0
MTEXT
  5
19C
100
AcDbEntity
  8
0
  6
Continuous
 62
           7
100
AcDbMText
 10
2.788666213222
 20
0.5703115592
 30
0.0
 40
0.030000000447
 41
0.0
 71
           5
 72
           1
  1
\A1;0.125{}in
 73
           1
 44
1.0
1001
TCAD
1000
TCW_REFPOINT
1002
{
1010
2.788666213222
1020
0.5703115592
1030
0.0
1002
}
1000
TCW_ATTRIBUTE
1002
{
1000
<0.125>
1002
}
  0
ENDBLK
  5
19D
100
AcDbEntity
  8
0
100
AcDbBlockEnd
  0
BLOCK
  5
1A0
100
AcDbEntity
  8
0
100
AcDbBlockBegin
  2
*D2
 70
           1
 10
0.0
 20
0.0
 30
0.0
  3
*D2
  1

  0
LINE
  5
1A1
100
AcDbEntity
  8
0
370
           0
  6
Continuous
 62
           7
100
AcDbLine
 10
2.3228130152
 20
0.1640615144
 30
0.0
 11
2.1328130152
 21
0.1640615144
 31
0.0
1001
TCAD
1000
TCW_ATTRIBUTE
1002
{
1000
<0.500>
1002
}
  0
LINE
  5
1A2
100
AcDbEntity
  8
0
370
           0
  6
Continuous
 62
           7
100
AcDbLine
 10
2.3228130376
 20
-0.3359386648
 30
0.0
 11
2.1328130376
 21
-0.3359386648
 31
0.0
1001
TCAD
1000
TCW_ATTRIBUTE
1002
{
1000
<0.500>
1002
}
  0
LWPOLYLINE
  5
1A3
100
AcDbEntity
  8
0
370
           0
  6
Continuous
 62
           7
100
AcDbPolyline
 90
        4
 70
           0
 10
2.25781301744
 20
0.1140615144
 10
2.25781301744
 20
0.1140615144
 10
2.25781301744
 20
0.1140615144
 10
2.25781302248
 20
0.001561425173
1001
TCAD
1000
TCW_ATTRIBUTE
1002
{
1000
<0.500>
1002
}
  0
LWPOLYLINE
  5
1A4
100
AcDbEntity
  8
0
370
           0
  6
Continuous
 62
           7
100
AcDbPolyline
 90
        4
 70
           0
 10
2.25781303536
 20
-0.2859386648
 10
2.25781303536
 20
-0.2859386648
 10
2.25781303536
 20
-0.2859386648
 10
2.25781303032
 20
-0.173438575573
1001
TCAD
1000
TCW_ATTRIBUTE
1002
{
1000
<0.500>
1002
}
  0
LWPOLYLINE
  5
1A6
102
{ACAD_REACTORS
330
1A5
102
}
100
AcDbEntity
  8
0
370
           0
  6
Continuous
 62
           7
100
AcDbPolyline
 90
        4
 70
           0
 10
2.2578130152
 20
0.1640615144
 10
2.25131301744
 20
0.114061514109
 10
2.26431301744
 20
0.114061514691
 10
2.2578130152
 20
0.1640615144
1001
TCAD
1000
TCW_ATTRIBUTE
1002
{
1000
<0.500>
1002
}
  0
HATCH
  5
1A5
100
AcDbEntity
  8
0
  6
Continuous
 62
           7
100
AcDbHatch
 10
0.0
 20
0.0
 30
0.0
210
0.0
220
0.0
230
1.0
  2
SOLID
 70
           1
 71
           1
 91
        1
 92
        3
 72
           0
 73
           1
 93
        3
 10
2.2578130152000004
 20
0.1640615143999998
 10
2.2513130174399998
 20
0.1140615141088
 10
2.2643130174399997
 20
0.1140615146911998
 97
        1
330
1A6
 75
           0
 76
           0
 98
        0
1001
TCAD
1000
TCW_ATTRIBUTE
1002
{
1000
<0.500>
1002
}
  0
LWPOLYLINE
  5
1A8
102
{ACAD_REACTORS
330
1A7
102
}
100
AcDbEntity
  8
0
370
           0
  6
Continuous
 62
           7
100
AcDbPolyline
 90
        4
 70
           0
 10
2.2578130376
 20
-0.3359386648
 10
2.26431303536
 20
-0.285938664509
 10
2.25131303536
 20
-0.285938665091
 10
2.2578130376
 20
-0.3359386648
1001
TCAD
1000
TCW_ATTRIBUTE
1002
{
1000
<0.500>
1002
}
  0
HATCH
  5
1A7
100
AcDbEntity
  8
0
  6
Continuous
 62
           7
100
AcDbHatch
 10
0.0
 20
0.0
 30
0.0
210
0.0
220
0.0
230
1.0
  2
SOLID
 70
           1
 71
           1
 91
        1
 92
        3
 72
           0
 73
           1
 93
        3
 10
2.2578130376000001
 20
-0.3359386648
 10
2.2643130353600007
 20
-0.2859386645088002
 10
2.2513130353600008
 20
-0.2859386650912
 97
        1
330
1A8
 75
           0
 76
           0
 98
        0
1001
TCAD
1000
TCW_ATTRIBUTE
1002
{
1000
<0.500>
1002
}
  0
MTEXT
  5
1A9
100
AcDbEntity
  8
0
  6
Continuous
 62
           7
100
AcDbMText
 10
2.2578130264
 20
-0.0859385752
 30
0.0
 40
0.030000000447
 41
0.0
 71
           5
 72
           1
  1
\A1;0.500{}in
 73
           1
 44
1.0
1001
TCAD
1000
TCW_REFPOINT
1002
{
1010
2.2578130264
1020
-0.0859385752
1030
0.0
1002
}
1000
TCW_ATTRIBUTE
1002
{
1000
<0.500>
1002
}
  0
ENDBLK
  5
1AA
100
AcDbEntity
  8
0
100
AcDbBlockEnd
  0
BLOCK
  5
1AD
100
AcDbEntity
  8
0
100
AcDbBlockBegin
  2
*D3
 70
           1
 10
0.0
 20
0.0
 30
0.0
  3
*D3
  1

  0
LINE
  5
1AE
100
AcDbEntity
  8
0
370
           0
  6
Continuous
 62
           7
100
AcDbLine
 10
1.5678130376
 20
0.2265613352
 30
0.0
 11
2.1015630376
 21
0.2265613352
 31
0.0
1001
TCAD
1000
TCW_ATTRIBUTE
1002
{
1000
<0.625>
1002
}
  0
LINE
  5
1AF
100
AcDbEntity
  8
0
370
           0
  6
Continuous
 62
           7
100
AcDbLine
 10
1.5678130376
 20
-0.3984386648
 30
0.0
 11
2.1015630376
 21
-0.3984386648
 31
0.0
1001
TCAD
1000
TCW_ATTRIBUTE
1002
{
1000
<0.625>
1002
}
  0
LWPOLYLINE
  5
1B0
100
AcDbEntity
  8
0
370
           0
  6
Continuous
 62
           7
100
AcDbPolyline
 90
        4
 70
           0
 10
1.9765630376
 20
0.1765613352
 10
1.9765630376
 20
0.1765613352
 10
1.9765630376
 20
0.1765613352
 10
1.9765630376
 20
0.001561335573
1001
TCAD
1000
TCW_ATTRIBUTE
1002
{
1000
<0.625>
1002
}
  0
LWPOLYLINE
  5
1B1
100
AcDbEntity
  8
0
370
           0
  6
Continuous
 62
           7
100
AcDbPolyline
 90
        4
 70
           0
 10
1.9765630376
 20
-0.3484386648
 10
1.9765630376
 20
-0.3484386648
 10
1.9765630376
 20
-0.3484386648
 10
1.9765630376
 20
-0.173438665173
1001
TCAD
1000
TCW_ATTRIBUTE
1002
{
1000
<0.625>
1002
}
  0
LWPOLYLINE
  5
1B3
102
{ACAD_REACTORS
330
1B2
102
}
100
AcDbEntity
  8
0
370
           0
  6
Continuous
 62
           7
100
AcDbPolyline
 90
        4
 70
           0
 10
1.9765630376
 20
0.2265613352
 10
1.9700630376
 20
0.1765613352
 10
1.9830630376
 20
0.1765613352
 10
1.9765630376
 20
0.2265613352
1001
TCAD
1000
TCW_ATTRIBUTE
1002
{
1000
<0.625>
1002
}
  0
HATCH
  5
1B2
100
AcDbEntity
  8
0
  6
Continuous
 62
           7
100
AcDbHatch
 10
0.0
 20
0.0
 30
0.0
210
0.0
220
0.0
230
1.0
  2
SOLID
 70
           1
 71
           1
 91
        1
 92
        3
 72
           0
 73
           1
 93
        3
 10
1.9765630376000001
 20
0.2265613351999999
 10
1.9700630376000001
 20
0.1765613351999999
 10
1.9830630376
 20
0.1765613351999999
 97
        1
330
1B3
 75
           0
 76
           0
 98
        0
1001
TCAD
1000
TCW_ATTRIBUTE
1002
{
1000
<0.625>
1002
}
  0
LWPOLYLINE
  5
1B5
102
{ACAD_REACTORS
330
1B4
102
}
100
AcDbEntity
  8
0
370
           0
  6
Continuous
 62
           7
100
AcDbPolyline
 90
        4
 70
           0
 10
1.9765630376
 20
-0.3984386648
 10
1.9830630376
 20
-0.3484386648
 10
1.9700630376
 20
-0.3484386648
 10
1.9765630376
 20
-0.3984386648
1001
TCAD
1000
TCW_ATTRIBUTE
1002
{
1000
<0.625>
1002
}
  0
HATCH
  5
1B4
100
AcDbEntity
  8
0
  6
Continuous
 62
           7
100
AcDbHatch
 10
0.0
 20
0.0
 30
0.0
210
0.0
220
0.0
230
1.0
  2
SOLID
 70
           1
 71
           1
 91
        1
 92
        3
 72
           0
 73
           1
 93
        3
 10
1.9765630376000001
 20
-0.3984386648000001
 10
1.9830630376
 20
-0.3484386648000001
 10
1.9700630376000001
 20
-0.3484386648000001
 97
        1
330
1B5
 75
           0
 76
           0
 98
        0
1001
TCAD
1000
TCW_ATTRIBUTE
1002
{
1000
<0.625>
1002
}
  0
MTEXT
  5
1B6
100
AcDbEntity
  8
0
  6
Continuous
 62
           7
100
AcDbMText
 10
1.9765630376
 20
-0.0859386648
 30
0.0
 40
0.030000000447
 41
0.0
 71
           5
 72
           1
  1
\A1;0.625{}in
 73
           1
 44
1.0
1001
TCAD
1000
TCW_REFPOINT
1002
{
1010
1.9765630376
1020
-0.0859386648
1030
0.0
1002
}
1000
TCW_ATTRIBUTE
1002
{
1000
<0.625>
1002
}
  0
ENDBLK
  5
1B7
100
AcDbEntity
  8
0
100
AcDbBlockEnd
  0
BLOCK
  5
1BD
100
AcDbEntity
  8
0
100
AcDbBlockBegin
  2
*D4
 70
           1
 10
0.0
 20
0.0
 30
0.0
  3
*D4
  1

  0
LINE
  5
1BE
100
AcDbEntity
  8
0
370
           0
  6
Continuous
 62
           7
100
AcDbLine
 10
1.1953121416
 20
0.9321871416
 30
0.0
 11
1.1953121416
 21
0.7968745296
 31
0.0
1001
TCAD
1000
TCW_ATTRIBUTE
1002
{
1000
<1.312>
1002
}
  0
LINE
  5
1BF
100
AcDbEntity
  8
0
370
           0
  6
Continuous
 62
           7
100
AcDbLine
 10
2.5078121416
 20
0.9634371416
 30
0.0
 11
2.5078121416
 21
0.7968745296
 31
0.0
1001
TCAD
1000
TCW_ATTRIBUTE
1002
{
1000
<1.312>
1002
}
  0
LWPOLYLINE
  5
1C0
100
AcDbEntity
  8
0
370
           0
  6
Continuous
 62
           7
100
AcDbPolyline
 90
        4
 70
           0
 10
1.2453121416
 20
0.9218745296
 10
1.2453121416
 20
0.9218745296
 10
1.2453121416
 20
0.9218745296
 10
1.720708965978
 20
0.9218745296
1001
TCAD
1000
TCW_ATTRIBUTE
1002
{
1000
<1.312>
1002
}
  0
LWPOLYLINE
  5
1C1
100
AcDbEntity
  8
0
370
           0
  6
Continuous
 62
           7
100
AcDbPolyline
 90
        4
 70
           0
 10
2.4578121416
 20
0.9218745296
 10
2.4578121416
 20
0.9218745296
 10
2.4578121416
 20
0.9218745296
 10
1.982415317222
 20
0.9218745296
1001
TCAD
1000
TCW_ATTRIBUTE
1002
{
1000
<1.312>
1002
}
  0
LWPOLYLINE
  5
1C3
102
{ACAD_REACTORS
330
1C2
102
}
100
AcDbEntity
  8
0
370
           0
  6
Continuous
 62
           7
100
AcDbPolyline
 90
        4
 70
           0
 10
1.1953121416
 20
0.9218745296
 10
1.2453121416
 20
0.9153745296
 10
1.2453121416
 20
0.9283745296
 10
1.1953121416
 20
0.9218745296
1001
TCAD
1000
TCW_ATTRIBUTE
1002
{
1000
<1.312>
1002
}
  0
HATCH
  5
1C2
100
AcDbEntity
  8
0
  6
Continuous
 62
           7
100
AcDbHatch
 10
0.0
 20
0.0
 30
0.0
210
0.0
220
0.0
230
1.0
  2
SOLID
 70
           1
 71
           1
 91
        1
 92
        3
 72
           0
 73
           1
 93
        3
 10
1.1953121416000001
 20
0.9218745296000005
 10
1.2453121416000001
 20
0.9153745296000005
 10
1.2453121416000001
 20
0.9283745296000004
 97
        1
330
1C3
 75
           0
 76
           0
 98
        0
1001
TCAD
1000
TCW_ATTRIBUTE
1002
{
1000
<1.312>
1002
}
  0
LWPOLYLINE
  5
1C5
102
{ACAD_REACTORS
330
1C4
102
}
100
AcDbEntity
  8
0
370
           0
  6
Continuous
 62
           7
100
AcDbPolyline
 90
        4
 70
           0
 10
2.5078121416
 20
0.9218745296
 10
2.4578121416
 20
0.9283745296
 10
2.4578121416
 20
0.9153745296
 10
2.5078121416
 20
0.9218745296
1001
TCAD
1000
TCW_ATTRIBUTE
1002
{
1000
<1.312>
1002
}
  0
HATCH
  5
1C4
100
AcDbEntity
  8
0
  6
Continuous
 62
           7
100
AcDbHatch
 10
0.0
 20
0.0
 30
0.0
210
0.0
220
0.0
230
1.0
  2
SOLID
 70
           1
 71
           1
 91
        1
 92
        3
 72
           0
 73
           1
 93
        3
 10
2.5078121416000001
 20
0.9218745296000002
 10
2.4578121416000003
 20
0.9283745296000001
 10
2.4578121416000003
 20
0.9153745296000002
 97
        1
330
1C5
 75
           0
 76
           0
 98
        0
1001
TCAD
1000
TCW_ATTRIBUTE
1002
{
1000
<1.312>
1002
}
  0
MTEXT
  5
1C6
100
AcDbEntity
  8
0
  6
Continuous
 62
           7
100
AcDbMText
 10
1.8515621416
 20
0.9218745296
 30
0.0
 40
0.030000000447
 41
0.0
 71
           5
 72
           1
  1
\A1;1.312{}in
 73
           1
 44
1.0
1001
TCAD
1000
TCW_REFPOINT
1002
{
1010
1.8515621416
1020
0.9218745296
1030
0.0
1002
}
1000
TCW_ATTRIBUTE
1002
{
1000
<1.312>
1002
}
  0
ENDBLK
  5
1C7
100
AcDbEntity
  8
0
100
AcDbBlockEnd
  0
BLOCK
  5
1D6
100
AcDbEntity
  8
0
100
AcDbBlockBegin
  2
*D5
 70
           1
 10
0.0
 20
0.0
 30
0.0
  3
*D5
  1

  0
LINE
  5
1D7
100
AcDbEntity
  8
0
370
           0
  6
Continuous
 62
           7
100
AcDbLine
 10
2.692813172
 20
1.726562612
 30
0.0
 11
3.1015634184
 21
1.726562612
 31
0.0
1001
TCAD
1000
TCW_ATTRIBUTE
1002
{
1000
<0.062>
1002
}
  0
LINE
  5
1D8
100
AcDbEntity
  8
0
370
           0
  6
Continuous
 62
           7
100
AcDbLine
 10
2.692813172
 20
1.664062612
 30
0.0
 11
3.1015634184
 21
1.664062612
 31
0.0
1001
TCAD
1000
TCW_ATTRIBUTE
1002
{
1000
<0.062>
1002
}
  0
LWPOLYLINE
  5
1D9
100
AcDbEntity
  8
0
370
           0
  6
Continuous
 62
           7
100
AcDbPolyline
 90
        2
 70
           0
 10
2.9765634184
 20
1.826562612
 10
2.9765634184
 20
1.776562612
1001
TCAD
1000
TCW_ATTRIBUTE
1002
{
1000
<0.062>
1002
}
  0
LWPOLYLINE
  5
1DA
100
AcDbEntity
  8
0
370
           0
  6
Continuous
 62
           7
100
AcDbPolyline
 90
        2
 70
           0
 10
2.9765634184
 20
1.726562612
 40
0.0
 41
0.0
 10
2.9765634184
 20
1.757812612
 40
0.0
 41
0.0
1001
TCAD
1000
TCW_ATTRIBUTE
1002
{
1000
<0.062>
1002
}
  0
LWPOLYLINE
  5
1DB
100
AcDbEntity
  8
0
370
           0
  6
Continuous
 62
           7
100
AcDbPolyline
 90
        2
 70
           0
 10
2.9765634184
 20
1.564062612
 10
2.9765634184
 20
1.614062612
1001
TCAD
1000
TCW_ATTRIBUTE
1002
{
1000
<0.062>
1002
}
  0
LWPOLYLINE
  5
1DC
100
AcDbEntity
  8
0
370
           0
  6
Continuous
 62
           7
100
AcDbPolyline
 90
        2
 70
           0
 10
2.9765634184
 20
1.664062612
 40
0.0
 41
0.0
 10
2.9765634184
 20
1.632812612
 40
0.0
 41
0.0
1001
TCAD
1000
TCW_ATTRIBUTE
1002
{
1000
<0.062>
1002
}
  0
LWPOLYLINE
  5
1DE
102
{ACAD_REACTORS
330
1DD
102
}
100
AcDbEntity
  8
0
370
           0
  6
Continuous
 62
           7
100
AcDbPolyline
 90
        4
 70
           0
 10
2.9765634184
 20
1.664062612
 10
2.9700634184
 20
1.614062612
 10
2.9830634184
 20
1.614062612
 10
2.9765634184
 20
1.664062612
1001
TCAD
1000
TCW_ATTRIBUTE
1002
{
1000
<0.062>
1002
}
  0
HATCH
  5
1DD
100
AcDbEntity
  8
0
  6
Continuous
 62
           7
100
AcDbHatch
 10
0.0
 20
0.0
 30
0.0
210
0.0
220
0.0
230
1.0
  2
SOLID
 70
           1
 71
           1
 91
        1
 92
        3
 72
           0
 73
           1
 93
        3
 10
2.9765634184
 20
1.6640626119999999
 10
2.9700634184000001
 20
1.6140626119999999
 10
2.9830634184
 20
1.6140626119999999
 97
        1
330
1DE
 75
           0
 76
           0
 98
        0
1001
TCAD
1000
TCW_ATTRIBUTE
1002
{
1000
<0.062>
1002
}
  0
LWPOLYLINE
  5
1E0
102
{ACAD_REACTORS
330
1DF
102
}
100
AcDbEntity
  8
0
370
           0
  6
Continuous
 62
           7
100
AcDbPolyline
 90
        4
 70
           0
 10
2.9765634184
 20
1.726562612
 10
2.9830634184
 20
1.776562612
 10
2.9700634184
 20
1.776562612
 10
2.9765634184
 20
1.726562612
1001
TCAD
1000
TCW_ATTRIBUTE
1002
{
1000
<0.062>
1002
}
  0
HATCH
  5
1DF
100
AcDbEntity
  8
0
  6
Continuous
 62
           7
100
AcDbHatch
 10
0.0
 20
0.0
 30
0.0
210
0.0
220
0.0
230
1.0
  2
SOLID
 70
           1
 71
           1
 91
        1
 92
        3
 72
           0
 73
           1
 93
        3
 10
2.9765634184
 20
1.7265626119999997
 10
2.9830634184
 20
1.7765626119999998
 10
2.9700634184000001
 20
1.7765626119999998
 97
        1
330
1E0
 75
           0
 76
           0
 98
        0
1001
TCAD
1000
TCW_ATTRIBUTE
1002
{
1000
<0.062>
1002
}
  0
MTEXT
  5
1E1
100
AcDbEntity
  8
0
  6
Continuous
 62
           7
100
AcDbMText
 10
2.9765634184
 20
1.695312612
 30
0.0
 40
0.030000000447
 41
0.0
 71
           5
 72
           1
  1
\A1;0.062{}in
 73
           1
 44
1.0
1001
TCAD
1000
TCW_REFPOINT
1002
{
1010
2.9765634184
1020
1.695312612
1030
0.0
1002
}
1000
TCW_ATTRIBUTE
1002
{
1000
<0.062>
1002
}
  0
ENDBLK
  5
1E2
100
AcDbEntity
  8
0
100
AcDbBlockEnd
  0
BLOCK
  5
1E5
100
AcDbEntity
  8
0
100
AcDbBlockBegin
  2
*D6
 70
           1
 10
0.0
 20
0.0
 30
0.0
  3
*D6
  1

  0
LINE
  5
1E6
100
AcDbEntity
  8
0
370
           0
  6
Continuous
 62
           7
100
AcDbLine
 10
2.294375364
 20
1.780312612
 30
0.0
 11
3.4140636424
 21
1.780312612
 31
0.0
1001
TCAD
1000
TCW_ATTRIBUTE
1002
{
1000
<0.170>
1002
}
  0
LINE
  5
1E7
100
AcDbEntity
  8
0
370
           0
  6
Continuous
 62
           7
100
AcDbLine
 10
2.692813172
 20
1.610312612
 30
0.0
 11
3.4140636424
 21
1.610312612
 31
0.0
1001
TCAD
1000
TCW_ATTRIBUTE
1002
{
1000
<0.170>
1002
}
  0
LWPOLYLINE
  5
1E8
100
AcDbEntity
  8
0
370
           0
  6
Continuous
 62
           7
100
AcDbPolyline
 90
        4
 70
           0
 10
3.2890636424
 20
1.730312612
 10
3.2890636424
 20
1.730312612
 10
3.2890636424
 20
1.730312612
 10
3.2890636424
 20
1.732812611627
1001
TCAD
1000
TCW_ATTRIBUTE
1002
{
1000
<0.170>
1002
}
  0
LWPOLYLINE
  5
1E9
100
AcDbEntity
  8
0
370
           0
  6
Continuous
 62
           7
100
AcDbPolyline
 90
        4
 70
           0
 10
3.2890636424
 20
1.660312612
 10
3.2890636424
 20
1.660312612
 10
3.2890636424
 20
1.660312612
 10
3.2890636424
 20
1.657812612373
1001
TCAD
1000
TCW_ATTRIBUTE
1002
{
1000
<0.170>
1002
}
  0
LWPOLYLINE
  5
1EB
102
{ACAD_REACTORS
330
1EA
102
}
100
AcDbEntity
  8
0
370
           0
  6
Continuous
 62
           7
100
AcDbPolyline
 90
        4
 70
           0
 10
3.2890636424
 20
1.780312612
 10
3.2825636424
 20
1.730312612
 10
3.2955636424
 20
1.730312612
 10
3.2890636424
 20
1.780312612
1001
TCAD
1000
TCW_ATTRIBUTE
1002
{
1000
<0.170>
1002
}
  0
HATCH
  5
1EA
100
AcDbEntity
  8
0
  6
Continuous
 62
           7
100
AcDbHatch
 10
0.0
 20
0.0
 30
0.0
210
0.0
220
0.0
230
1.0
  2
SOLID
 70
           1
 71
           1
 91
        1
 92
        3
 72
           0
 73
           1
 93
        3
 10
3.2890636423999999
 20
1.7803126119999999
 10
3.2825636424
 20
1.7303126119999999
 10
3.2955636423999999
 20
1.7303126119999999
 97
        1
330
1EB
 75
           0
 76
           0
 98
        0
1001
TCAD
1000
TCW_ATTRIBUTE
1002
{
1000
<0.170>
1002
}
  0
LWPOLYLINE
  5
1ED
102
{ACAD_REACTORS
330
1EC
102
}
100
AcDbEntity
  8
0
370
           0
  6
Continuous
 62
           7
100
AcDbPolyline
 90
        4
 70
           0
 10
3.2890636424
 20
1.610312612
 10
3.2955636424
 20
1.660312612
 10
3.2825636424
 20
1.660312612
 10
3.2890636424
 20
1.610312612
1001
TCAD
1000
TCW_ATTRIBUTE
1002
{
1000
<0.170>
1002
}
  0
HATCH
  5
1EC
100
AcDbEntity
  8
0
  6
Continuous
 62
           7
100
AcDbHatch
 10
0.0
 20
0.0
 30
0.0
210
0.0
220
0.0
230
1.0
  2
SOLID
 70
           1
 71
           1
 91
        1
 92
        3
 72
           0
 73
           1
 93
        3
 10
3.2890636423999999
 20
1.6103126120000002
 10
3.2955636423999999
 20
1.6603126120000002
 10
3.2825636424
 20
1.6603126120000002
 97
        1
330
1ED
 75
           0
 76
           0
 98
        0
1001
TCAD
1000
TCW_ATTRIBUTE
1002
{
1000
<0.170>
1002
}
  0
MTEXT
  5
1EE
100
AcDbEntity
  8
0
  6
Continuous
 62
           7
100
AcDbMText
 10
3.2890636424
 20
1.695312612
 30
0.0
 40
0.030000000447
 41
0.0
 71
           5
 72
           1
  1
\A1;0.170{}in
 73
           1
 44
1.0
1001
TCAD
1000
TCW_REFPOINT
1002
{
1010
3.2890636424
1020
1.695312612
1030
0.0
1002
}
1000
TCW_ATTRIBUTE
1002
{
1000
<0.170>
1002
}
  0
ENDBLK
  5
1EF
100
AcDbEntity
  8
0
100
AcDbBlockEnd
  0
BLOCK
  5
1F9
100
AcDbEntity
  8
0
100
AcDbBlockBegin
  2
*D7
 70
           1
 10
0.0
 20
0.0
 30
0.0
  3
*D7
  1

  0
LINE
  5
1FA
100
AcDbEntity
  8
0
370
           0
  6
Continuous
 62
           7
100
AcDbLine
 10
3.567813736752
 20
0.2265615592
 30
0.0
 11
3.914064000257
 21
0.2265615592
 31
0.0
1001
TCAD
1000
TCW_ATTRIBUTE
1002
{
1000
<0.438>
1002
}
  0
LINE
  5
1FB
100
AcDbEntity
  8
0
370
           0
  6
Continuous
 62
           7
100
AcDbLine
 10
3.567813830424
 20
0.6640618728
 30
0.0
 11
3.91406409393
 21
0.6640618728
 31
0.0
1001
TCAD
1000
TCW_ATTRIBUTE
1002
{
1000
<0.438>
1002
}
  0
LWPOLYLINE
  5
1FC
100
AcDbEntity
  8
0
370
           0
  6
Continuous
 62
           7
100
AcDbPolyline
 90
        4
 70
           0
 10
3.789064010962
 20
0.2765615592
 10
3.789064010962
 20
0.2765615592
 10
3.789064010962
 20
0.2765615592
 10
3.789064028359
 20
0.357811715627
1001
TCAD
1000
TCW_ATTRIBUTE
1002
{
1000
<0.438>
1002
}
  0
LWPOLYLINE
  5
1FD
100
AcDbEntity
  8
0
370
           0
  6
Continuous
 62
           7
100
AcDbPolyline
 90
        4
 70
           0
 10
3.789064083224
 20
0.6140618728
 10
3.789064083224
 20
0.6140618728
 10
3.789064083224
 20
0.6140618728
 10
3.789064065828
 20
0.532811716373
1001
TCAD
1000
TCW_ATTRIBUTE
1002
{
1000
<0.438>
1002
}
  0
LWPOLYLINE
  5
1FF
102
{ACAD_REACTORS
330
1FE
102
}
100
AcDbEntity
  8
0
370
           0
  6
Continuous
 62
           7
100
AcDbPolyline
 90
        4
 70
           0
 10
3.789064000257
 20
0.2265615592
 10
3.795564010962
 20
0.276561557808
 10
3.782564010962
 20
0.276561560592
 10
3.789064000257
 20
0.2265615592
1001
TCAD
1000
TCW_ATTRIBUTE
1002
{
1000
<0.438>
1002
}
  0
HATCH
  5
1FE
100
AcDbEntity
  8
0
  6
Continuous
 62
           7
100
AcDbHatch
 10
0.0
 20
0.0
 30
0.0
210
0.0
220
0.0
230
1.0
  2
SOLID
 70
           1
 71
           1
 91
        1
 92
        3
 72
           0
 73
           1
 93
        3
 10
3.789064000256976
 20
0.2265615591999988
 10
3.7955640109624249
 20
0.2765615578082892
 10
3.782564010962425
 20
0.2765615605917061
 97
        1
330
1FF
 75
           0
 76
           0
 98
        0
1001
TCAD
1000
TCW_ATTRIBUTE
1002
{
1000
<0.438>
1002
}
  0
LWPOLYLINE
  5
201
102
{ACAD_REACTORS
330
200
102
}
100
AcDbEntity
  8
0
370
           0
  6
Continuous
 62
           7
100
AcDbPolyline
 90
        4
 70
           0
 10
3.78906409393
 20
0.6640618728
 10
3.782564083224
 20
0.614061874192
 10
3.795564083224
 20
0.614061871408
 10
3.78906409393
 20
0.6640618728
1001
TCAD
1000
TCW_ATTRIBUTE
1002
{
1000
<0.438>
1002
}
  0
HATCH
  5
200
100
AcDbEntity
  8
0
  6
Continuous
 62
           7
100
AcDbHatch
 10
0.0
 20
0.0
 30
0.0
210
0.0
220
0.0
230
1.0
  2
SOLID
 70
           1
 71
           1
 91
        1
 92
        3
 72
           0
 73
           1
 93
        3
 10
3.7890640939297233
 20
0.6640618727999971
 10
3.7825640832242744
 20
0.6140618741917067
 10
3.7955640832242743
 20
0.6140618714082898
 97
        1
330
201
 75
           0
 76
           0
 98
        0
1001
TCAD
1000
TCW_ATTRIBUTE
1002
{
1000
<0.438>
1002
}
  0
MTEXT
  5
202
100
AcDbEntity
  8
0
  6
Continuous
 62
           7
100
AcDbMText
 10
3.789064047093
 20
0.445311716
 30
0.0
 40
0.030000000447
 41
0.0
 71
           5
 72
           1
  1
\A1;0.438{}in
 73
           1
 44
1.0
1001
TCAD
1000
TCW_REFPOINT
1002
{
1010
3.789064047093
1020
0.445311716
1030
0.0
1002
}
1000
TCW_ATTRIBUTE
1002
{
1000
<0.438>
1002
}
  0
ENDBLK
  5
203
100
AcDbEntity
  8
0
100
AcDbBlockEnd
  0
BLOCK
  5
212
100
AcDbEntity
  8
0
100
AcDbBlockBegin
  2
*D8
 70
           1
 10
0.0
 20
0.0
 30
0.0
  3
*D8
  1

  0
LINE
  5
213
100
AcDbEntity
  8
0
370
           0
  6
Continuous
 62
           7
100
AcDbLine
 10
3.257813647152
 20
0.692811877552
 30
0.0
 11
3.257813647152
 21
1.111978851785
 31
0.0
1001
TCAD
1000
TCW_ATTRIBUTE
1002
{
1000
<0.250>
1002
}
  0
LINE
  5
214
100
AcDbEntity
  8
0
370
           0
  6
Continuous
 62
           7
100
AcDbLine
 10
3.507813772048
 20
0.692811877552
 30
0.0
 11
3.507813772048
 21
1.111978851785
 31
0.0
1001
TCAD
1000
TCW_ATTRIBUTE
1002
{
1000
<0.250>
1002
}
  0
LWPOLYLINE
  5
215
100
AcDbEntity
  8
0
370
           0
  6
Continuous
 62
           7
100
AcDbPolyline
 90
        2
 70
           0
 10
3.157813647152
 20
0.986978851785
 10
3.207813647152
 20
0.986978851785
1001
TCAD
1000
TCW_ATTRIBUTE
1002
{
1000
<0.250>
1002
}
  0
LWPOLYLINE
  5
216
100
AcDbEntity
  8
0
370
           0
  6
Continuous
 62
           7
100
AcDbPolyline
 90
        2
 70
           0
 10
3.257813647152
 20
0.986978851785
 40
0.0
 41
0.0
 10
3.314460533978
 20
0.986978851785
 40
0.0
 41
0.0
1001
TCAD
1000
TCW_ATTRIBUTE
1002
{
1000
<0.250>
1002
}
  0
LWPOLYLINE
  5
217
100
AcDbEntity
  8
0
370
           0
  6
Continuous
 62
           7
100
AcDbPolyline
 90
        2
 70
           0
 10
3.607813772048
 20
0.986978851785
 10
3.557813772048
 20
0.986978851785
1001
TCAD
1000
TCW_ATTRIBUTE
1002
{
1000
<0.250>
1002
}
  0
LWPOLYLINE
  5
218
100
AcDbEntity
  8
0
370
           0
  6
Continuous
 62
           7
100
AcDbPolyline
 90
        2
 70
           0
 10
3.507813772048
 20
0.986978851785
 40
0.0
 41
0.0
 10
3.451166885222
 20
0.986978851785
 40
0.0
 41
0.0
1001
TCAD
1000
TCW_ATTRIBUTE
1002
{
1000
<0.250>
1002
}
  0
LWPOLYLINE
  5
21A
102
{ACAD_REACTORS
330
219
102
}
100
AcDbEntity
  8
0
370
           0
  6
Continuous
 62
           7
100
AcDbPolyline
 90
        4
 70
           0
 10
3.507813772048
 20
0.986978851785
 10
3.557813772048
 20
0.980478851785
 10
3.557813772048
 20
0.993478851785
 10
3.507813772048
 20
0.986978851785
1001
TCAD
1000
TCW_ATTRIBUTE
1002
{
1000
<0.250>
1002
}
  0
HATCH
  5
219
100
AcDbEntity
  8
0
  6
Continuous
 62
           7
100
AcDbHatch
 10
0.0
 20
0.0
 30
0.0
210
0.0
220
0.0
230
1.0
  2
SOLID
 70
           1
 71
           1
 91
        1
 92
        3
 72
           0
 73
           1
 93
        3
 10
3.507813772048487
 20
0.9869788517845313
 10
3.5578137720484868
 20
0.9804788517845313
 10
3.5578137720484868
 20
0.9934788517845312
 97
        1
330
21A
 75
           0
 76
           0
 98
        0
1001
TCAD
1000
TCW_ATTRIBUTE
1002
{
1000
<0.250>
1002
}
  0
LWPOLYLINE
  5
21C
102
{ACAD_REACTORS
330
21B
102
}
100
AcDbEntity
  8
0
370
           0
  6
Continuous
 62
           7
100
AcDbPolyline
 90
        4
 70
           0
 10
3.257813647152
 20
0.986978851785
 10
3.207813647152
 20
0.993478851785
 10
3.207813647152
 20
0.980478851785
 10
3.257813647152
 20
0.986978851785
1001
TCAD
1000
TCW_ATTRIBUTE
1002
{
1000
<0.250>
1002
}
  0
HATCH
  5
21B
100
AcDbEntity
  8
0
  6
Continuous
 62
           7
100
AcDbHatch
 10
0.0
 20
0.0
 30
0.0
210
0.0
220
0.0
230
1.0
  2
SOLID
 70
           1
 71
           1
 91
        1
 92
        3
 72
           0
 73
           1
 93
        3
 10
3.2578136471515124
 20
0.9869788517845313
 10
3.2078136471515126
 20
0.9934788517845312
 10
3.2078136471515126
 20
0.9804788517845313
 97
        1
330
21C
 75
           0
 76
           0
 98
        0
1001
TCAD
1000
TCW_ATTRIBUTE
1002
{
1000
<0.250>
1002
}
  0
MTEXT
  5
21D
100
AcDbEntity
  8
0
  6
Continuous
 62
           7
100
AcDbMText
 10
3.3828137096
 20
0.986978851785
 30
0.0
 40
0.030000000447
 41
0.0
 71
           5
 72
           1
  1
\A1;0.250{}in
 73
           1
 44
1.0
1001
TCAD
1000
TCW_REFPOINT
1002
{
1010
3.3828137096
1020
0.986978851785
1030
0.0
1002
}
1000
TCW_ATTRIBUTE
1002
{
1000
<0.250>
1002
}
  0
ENDBLK
  5
21E
100
AcDbEntity
  8
0
100
AcDbBlockEnd
  0
BLOCK
  5
22E
100
AcDbEntity
  8
0
100
AcDbBlockBegin
  2
*D9
 70
           1
 10
0.0
 20
0.0
 30
0.0
  3
*D9
  1

  0
LINE
  5
22F
100
AcDbEntity
  8
0
370
           0
  6
Continuous
 62
           7
100
AcDbLine
 10
3.5365637768
 20
0.2265615592
 30
0.0
 11
3.7578138888
 21
0.2265615592
 31
0.0
1001
TCAD
1000
TCW_ATTRIBUTE
1002
{
1000
<0.312>
1002
}
  0
LINE
  5
230
100
AcDbEntity
  8
0
370
           0
  6
Continuous
 62
           7
100
AcDbLine
 10
3.5278137096
 20
0.5390615592
 30
0.0
 11
3.7578138888
 21
0.5390615592
 31
0.0
1001
TCAD
1000
TCW_ATTRIBUTE
1002
{
1000
<0.312>
1002
}
  0
LWPOLYLINE
  5
231
100
AcDbEntity
  8
0
370
           0
  6
Continuous
 62
           7
100
AcDbPolyline
 90
        4
 70
           0
 10
3.6328138888
 20
0.2765615592
 10
3.6328138888
 20
0.2765615592
 10
3.6328138888
 20
0.2765615592
 10
3.6328138888
 20
0.295311558827
1001
TCAD
1000
TCW_ATTRIBUTE
1002
{
1000
<0.312>
1002
}
  0
LWPOLYLINE
  5
232
100
AcDbEntity
  8
0
370
           0
  6
Continuous
 62
           7
100
AcDbPolyline
 90
        4
 70
           0
 10
3.6328138888
 20
0.4890615592
 10
3.6328138888
 20
0.4890615592
 10
3.6328138888
 20
0.4890615592
 10
3.6328138888
 20
0.470311559573
1001
TCAD
1000
TCW_ATTRIBUTE
1002
{
1000
<0.312>
1002
}
  0
LWPOLYLINE
  5
234
102
{ACAD_REACTORS
330
233
102
}
100
AcDbEntity
  8
0
370
           0
  6
Continuous
 62
           7
100
AcDbPolyline
 90
        4
 70
           0
 10
3.6328138888
 20
0.2265615592
 10
3.6393138888
 20
0.2765615592
 10
3.6263138888
 20
0.2765615592
 10
3.6328138888
 20
0.2265615592
1001
TCAD
1000
TCW_ATTRIBUTE
1002
{
1000
<0.312>
1002
}
  0
HATCH
  5
233
100
AcDbEntity
  8
0
  6
Continuous
 62
           7
100
AcDbHatch
 10
0.0
 20
0.0
 30
0.0
210
0.0
220
0.0
230
1.0
  2
SOLID
 70
           1
 71
           1
 91
        1
 92
        3
 72
           0
 73
           1
 93
        3
 10
3.6328138888000003
 20
0.2265615591999999
 10
3.6393138888000003
 20
0.2765615591999999
 10
3.6263138888000004
 20
0.2765615591999999
 97
        1
330
234
 75
           0
 76
           0
 98
        0
1001
TCAD
1000
TCW_ATTRIBUTE
1002
{
1000
<0.312>
1002
}
  0
LWPOLYLINE
  5
236
102
{ACAD_REACTORS
330
235
102
}
100
AcDbEntity
  8
0
370
           0
  6
Continuous
 62
           7
100
AcDbPolyline
 90
        4
 70
           0
 10
3.6328138888
 20
0.5390615592
 10
3.6263138888
 20
0.4890615592
 10
3.6393138888
 20
0.4890615592
 10
3.6328138888
 20
0.5390615592
1001
TCAD
1000
TCW_ATTRIBUTE
1002
{
1000
<0.312>
1002
}
  0
HATCH
  5
235
100
AcDbEntity
  8
0
  6
Continuous
 62
           7
100
AcDbHatch
 10
0.0
 20
0.0
 30
0.0
210
0.0
220
0.0
230
1.0
  2
SOLID
 70
           1
 71
           1
 91
        1
 92
        3
 72
           0
 73
           1
 93
        3
 10
3.6328138888000003
 20
0.5390615591999995
 10
3.6263138888000004
 20
0.4890615591999996
 10
3.6393138888000003
 20
0.4890615591999996
 97
        1
330
236
 75
           0
 76
           0
 98
        0
1001
TCAD
1000
TCW_ATTRIBUTE
1002
{
1000
<0.312>
1002
}
  0
MTEXT
  5
237
100
AcDbEntity
  8
0
  6
Continuous
 62
           7
100
AcDbMText
 10
3.6328138888
 20
0.3828115592
 30
0.0
 40
0.030000000447
 41
0.0
 71
           5
 72
           1
  1
\A1;0.312{}in
 73
           1
 44
1.0
1001
TCAD
1000
TCW_REFPOINT
1002
{
1010
3.6328138888
1020
0.3828115592
1030
0.0
1002
}
1000
TCW_ATTRIBUTE
1002
{
1000
<0.312>
1002
}
  0
ENDBLK
  5
238
100
AcDbEntity
  8
0
100
AcDbBlockEnd
  0
BLOCK
  5
257
100
AcDbEntity
  8
0
100
AcDbBlockBegin
  2
*D10
 70
           1
 10
0.0
 20
0.0
 30
0.0
  3
*D10
  1

  0
LINE
  5
258
100
AcDbEntity
  8
0
370
           0
  6
Continuous
 62
           7
100
AcDbLine
 10
2.6771881608
 20
-0.0859386648
 30
0.0
 11
2.7890631944
 21
-0.0859386648
 31
0.0
1001
TCAD
1000
TCW_ATTRIBUTE
1002
{
1000
<0.156>
1002
}
  0
LINE
  5
259
100
AcDbEntity
  8
0
370
           0
  6
Continuous
 62
           7
100
AcDbLine
 10
2.6303131272
 20
-0.2421887768
 30
0.0
 11
2.7890631944
 21
-0.2421887768
 31
0.0
1001
TCAD
1000
TCW_ATTRIBUTE
1002
{
1000
<0.156>
1002
}
  0
LWPOLYLINE
  5
25A
100
AcDbEntity
  8
0
370
           0
  6
Continuous
 62
           7
100
AcDbPolyline
 90
        4
 70
           0
 10
2.6640631944
 20
-0.1359386648
 10
2.6640631944
 20
-0.1359386648
 10
2.6640631944
 20
-0.1359386648
 10
2.6640631944
 20
-0.126563721173
1001
TCAD
1000
TCW_ATTRIBUTE
1002
{
1000
<0.156>
1002
}
  0
LWPOLYLINE
  5
25B
100
AcDbEntity
  8
0
370
           0
  6
Continuous
 62
           7
100
AcDbPolyline
 90
        4
 70
           0
 10
2.6640631944
 20
-0.1921887768
 10
2.6640631944
 20
-0.1921887768
 10
2.6640631944
 20
-0.1921887768
 10
2.6640631944
 20
-0.201563720427
1001
TCAD
1000
TCW_ATTRIBUTE
1002
{
1000
<0.156>
1002
}
  0
LWPOLYLINE
  5
25D
102
{ACAD_REACTORS
330
25C
102
}
100
AcDbEntity
  8
0
370
           0
  6
Continuous
 62
           7
100
AcDbPolyline
 90
        4
 70
           0
 10
2.6640631944
 20
-0.0859386648
 10
2.6575631944
 20
-0.1359386648
 10
2.6705631944
 20
-0.1359386648
 10
2.6640631944
 20
-0.0859386648
1001
TCAD
1000
TCW_ATTRIBUTE
1002
{
1000
<0.156>
1002
}
  0
HATCH
  5
25C
100
AcDbEntity
  8
0
  6
Continuous
 62
           7
100
AcDbHatch
 10
0.0
 20
0.0
 30
0.0
210
0.0
220
0.0
230
1.0
  2
SOLID
 70
           1
 71
           1
 91
        1
 92
        3
 72
           0
 73
           1
 93
        3
 10
2.6640631944000002
 20
-0.0859386648
 10
2.6575631944000002
 20
-0.1359386648000001
 10
2.6705631944000001
 20
-0.1359386648000001
 97
        1
330
25D
 75
           0
 76
           0
 98
        0
1001
TCAD
1000
TCW_ATTRIBUTE
1002
{
1000
<0.156>
1002
}
  0
LWPOLYLINE
  5
25F
102
{ACAD_REACTORS
330
25E
102
}
100
AcDbEntity
  8
0
370
           0
  6
Continuous
 62
           7
100
AcDbPolyline
 90
        4
 70
           0
 10
2.6640631944
 20
-0.2421887768
 10
2.6705631944
 20
-0.1921887768
 10
2.6575631944
 20
-0.1921887768
 10
2.6640631944
 20
-0.2421887768
1001
TCAD
1000
TCW_ATTRIBUTE
1002
{
1000
<0.156>
1002
}
  0
HATCH
  5
25E
100
AcDbEntity
  8
0
  6
Continuous
 62
           7
100
AcDbHatch
 10
0.0
 20
0.0
 30
0.0
210
0.0
220
0.0
230
1.0
  2
SOLID
 70
           1
 71
           1
 91
        1
 92
        3
 72
           0
 73
           1
 93
        3
 10
2.6640631944000002
 20
-0.2421887768
 10
2.6705631944000001
 20
-0.1921887768
 10
2.6575631944000002
 20
-0.1921887768
 97
        1
330
25F
 75
           0
 76
           0
 98
        0
1001
TCAD
1000
TCW_ATTRIBUTE
1002
{
1000
<0.156>
1002
}
  0
MTEXT
  5
260
100
AcDbEntity
  8
0
  6
Continuous
 62
           7
100
AcDbMText
 10
2.6640631944
 20
-0.1640637208
 30
0.0
 40
0.030000000447
 41
0.0
 71
           5
 72
           1
  1
\A1;0.156{}in
 73
           1
 44
1.0
1001
TCAD
1000
TCW_REFPOINT
1002
{
1010
2.6640631944
1020
-0.1640637208
1030
0.0
1002
}
1000
TCW_ATTRIBUTE
1002
{
1000
<0.156>
1002
}
  0
ENDBLK
  5
261
100
AcDbEntity
  8
0
100
AcDbBlockEnd
  0
BLOCK
  5
267
100
AcDbEntity
  8
0
100
AcDbBlockBegin
  2
*D11
 70
           1
 10
0.0
 20
0.0
 30
0.0
  3
*D11
  1

  0
LINE
  5
268
100
AcDbEntity
  8
0
370
           0
  6
Continuous
 62
           7
100
AcDbLine
 10
1.1328120968
 20
1.844887617762
 30
0.0
 11
1.1328120968
 21
2.164687927087
 31
0.0
1001
TCAD
1000
TCW_ATTRIBUTE
1002
{
1000
<1.125>
1002
}
  0
LINE
  5
269
100
AcDbEntity
  8
0
370
           0
  6
Continuous
 62
           7
100
AcDbLine
 10
2.2578129032
 20
1.8021876456
 30
0.0
 11
2.2578129032
 21
2.164687927087
 31
0.0
1001
TCAD
1000
TCW_ATTRIBUTE
1002
{
1000
<1.125>
1002
}
  0
LWPOLYLINE
  5
26A
100
AcDbEntity
  8
0
370
           0
  6
Continuous
 62
           7
100
AcDbPolyline
 90
        4
 70
           0
 10
1.1828120968
 20
2.039687927087
 10
1.1828120968
 20
2.039687927087
 10
1.1828120968
 20
2.039687927087
 10
1.564459324378
 20
2.039687927087
1001
TCAD
1000
TCW_ATTRIBUTE
1002
{
1000
<1.125>
1002
}
  0
LWPOLYLINE
  5
26B
100
AcDbEntity
  8
0
370
           0
  6
Continuous
 62
           7
100
AcDbPolyline
 90
        4
 70
           0
 10
2.2078129032
 20
2.039687927087
 10
2.2078129032
 20
2.039687927087
 10
2.2078129032
 20
2.039687927087
 10
1.826165675622
 20
2.039687927087
1001
TCAD
1000
TCW_ATTRIBUTE
1002
{
1000
<1.125>
1002
}
  0
LWPOLYLINE
  5
26D
102
{ACAD_REACTORS
330
26C
102
}
100
AcDbEntity
  8
0
370
           0
  6
Continuous
 62
           7
100
AcDbPolyline
 90
        4
 70
           0
 10
1.1328120968
 20
2.039687927087
 10
1.1828120968
 20
2.033187927087
 10
1.1828120968
 20
2.046187927087
 10
1.1328120968
 20
2.039687927087
1001
TCAD
1000
TCW_ATTRIBUTE
1002
{
1000
<1.125>
1002
}
  0
HATCH
  5
26C
100
AcDbEntity
  8
0
  6
Continuous
 62
           7
100
AcDbHatch
 10
0.0
 20
0.0
 30
0.0
210
0.0
220
0.0
230
1.0
  2
SOLID
 70
           1
 71
           1
 91
        1
 92
        3
 72
           0
 73
           1
 93
        3
 10
1.1328120967999999
 20
2.0396879270873756
 10
1.1828120968
 20
2.0331879270873756
 10
1.1828120968
 20
2.0461879270873755
 97
        1
330
26D
 75
           0
 76
           0
 98
        0
1001
TCAD
1000
TCW_ATTRIBUTE
1002
{
1000
<1.125>
1002
}
  0
LWPOLYLINE
  5
26F
102
{ACAD_REACTORS
330
26E
102
}
100
AcDbEntity
  8
0
370
           0
  6
Continuous
 62
           7
100
AcDbPolyline
 90
        4
 70
           0
 10
2.2578129032
 20
2.039687927087
 10
2.2078129032
 20
2.046187927087
 10
2.2078129032
 20
2.033187927087
 10
2.2578129032
 20
2.039687927087
1001
TCAD
1000
TCW_ATTRIBUTE
1002
{
1000
<1.125>
1002
}
  0
HATCH
  5
26E
100
AcDbEntity
  8
0
  6
Continuous
 62
           7
100
AcDbHatch
 10
0.0
 20
0.0
 30
0.0
210
0.0
220
0.0
230
1.0
  2
SOLID
 70
           1
 71
           1
 91
        1
 92
        3
 72
           0
 73
           1
 93
        3
 10
2.2578129032000001
 20
2.0396879270873756
 10
2.2078129032000002
 20
2.0461879270873755
 10
2.2078129032000002
 20
2.0331879270873756
 97
        1
330
26F
 75
           0
 76
           0
 98
        0
1001
TCAD
1000
TCW_ATTRIBUTE
1002
{
1000
<1.125>
1002
}
  0
MTEXT
  5
270
100
AcDbEntity
  8
0
  6
Continuous
 62
           7
100
AcDbMText
 10
1.6953125
 20
2.039687927087
 30
0.0
 40
0.030000000447
 41
0.0
 71
           5
 72
           1
  1
\A1;1.125{}in
 73
           1
 44
1.0
1001
TCAD
1000
TCW_REFPOINT
1002
{
1010
1.6953125
1020
2.039687927087
1030
0.0
1002
}
1000
TCW_ATTRIBUTE
1002
{
1000
<1.125>
1002
}
  0
ENDBLK
  5
271
100
AcDbEntity
  8
0
100
AcDbBlockEnd
  0
BLOCK
  5
278
100
AcDbEntity
  8
0
100
AcDbBlockBegin
  2
*D12
 70
           1
 10
0.0
 20
0.0
 30
0.0
  3
*D12
  1

  0
LINE
  5
279
100
AcDbEntity
  8
0
370
           0
  6
Continuous
 62
           7
100
AcDbLine
 10
1.1328120968
 20
1.840312612
 30
0.0
 11
1.1328120968
 21
2.315486475836
 31
0.0
1001
TCAD
1000
TCW_ATTRIBUTE
1002
{
1000
<1.500>
1002
}
  0
LINE
  5
27A
100
AcDbEntity
  8
0
370
           0
  6
Continuous
 62
           7
100
AcDbLine
 10
2.632813172
 20
1.840312612
 30
0.0
 11
2.632813172
 21
2.315486475836
 31
0.0
1001
TCAD
1000
TCW_ATTRIBUTE
1002
{
1000
<1.500>
1002
}
  0
LWPOLYLINE
  5
27B
100
AcDbEntity
  8
0
370
           0
  6
Continuous
 62
           7
100
AcDbPolyline
 90
        4
 70
           0
 10
1.1828120968
 20
2.190486475836
 10
1.1828120968
 20
2.190486475836
 10
1.1828120968
 20
2.190486475836
 10
1.751959458778
 20
2.190486475836
1001
TCAD
1000
TCW_ATTRIBUTE
1002
{
1000
<1.500>
1002
}
  0
LWPOLYLINE
  5
27C
100
AcDbEntity
  8
0
370
           0
  6
Continuous
 62
           7
100
AcDbPolyline
 90
        4
 70
           0
 10
2.582813172
 20
2.190486475836
 10
2.582813172
 20
2.190486475836
 10
2.582813172
 20
2.190486475836
 10
2.013665810022
 20
2.190486475836
1001
TCAD
1000
TCW_ATTRIBUTE
1002
{
1000
<1.500>
1002
}
  0
LWPOLYLINE
  5
27E
102
{ACAD_REACTORS
330
27D
102
}
100
AcDbEntity
  8
0
370
           0
  6
Continuous
 62
           7
100
AcDbPolyline
 90
        4
 70
           0
 10
1.1328120968
 20
2.190486475836
 10
1.1828120968
 20
2.183986475836
 10
1.1828120968
 20
2.196986475836
 10
1.1328120968
 20
2.190486475836
1001
TCAD
1000
TCW_ATTRIBUTE
1002
{
1000
<1.500>
1002
}
  0
HATCH
  5
27D
100
AcDbEntity
  8
0
  6
Continuous
 62
           7
100
AcDbHatch
 10
0.0
 20
0.0
 30
0.0
210
0.0
220
0.0
230
1.0
  2
SOLID
 70
           1
 71
           1
 91
        1
 92
        3
 72
           0
 73
           1
 93
        3
 10
1.1328120967999999
 20
2.1904864758358533
 10
1.1828120968
 20
2.1839864758358534
 10
1.1828120968
 20
2.1969864758358533
 97
        1
330
27E
 75
           0
 76
           0
 98
        0
1001
TCAD
1000
TCW_ATTRIBUTE
1002
{
1000
<1.500>
1002
}
  0
LWPOLYLINE
  5
280
102
{ACAD_REACTORS
330
27F
102
}
100
AcDbEntity
  8
0
370
           0
  6
Continuous
 62
           7
100
AcDbPolyline
 90
        4
 70
           0
 10
2.632813172
 20
2.190486475836
 10
2.582813172
 20
2.196986475836
 10
2.582813172
 20
2.183986475836
 10
2.632813172
 20
2.190486475836
1001
TCAD
1000
TCW_ATTRIBUTE
1002
{
1000
<1.500>
1002
}
  0
HATCH
  5
27F
100
AcDbEntity
  8
0
  6
Continuous
 62
           7
100
AcDbHatch
 10
0.0
 20
0.0
 30
0.0
210
0.0
220
0.0
230
1.0
  2
SOLID
 70
           1
 71
           1
 91
        1
 92
        3
 72
           0
 73
           1
 93
        3
 10
2.6328131720000005
 20
2.1904864758358538
 10
2.5828131720000007
 20
2.1969864758358537
 10
2.5828131720000007
 20
2.1839864758358538
 97
        1
330
280
 75
           0
 76
           0
 98
        0
1001
TCAD
1000
TCW_ATTRIBUTE
1002
{
1000
<1.500>
1002
}
  0
MTEXT
  5
281
100
AcDbEntity
  8
0
  6
Continuous
 62
           7
100
AcDbMText
 10
1.8828126344
 20
2.190486475836
 30
0.0
 40
0.030000000447
 41
0.0
 71
           5
 72
           1
  1
\A1;1.500{}in
 73
           1
 44
1.0
1001
TCAD
1000
TCW_REFPOINT
1002
{
1010
1.8828126344
1020
2.190486475836
1030
0.0
1002
}
1000
TCW_ATTRIBUTE
1002
{
1000
<1.500>
1002
}
  0
ENDBLK
  5
282
100
AcDbEntity
  8
0
100
AcDbBlockEnd
  0
BLOCK
  5
285
100
AcDbEntity
  8
0
100
AcDbBlockBegin
  2
*D13
 70
           1
 10
0.0
 20
0.0
 30
0.0
  3
*D13
  1

  0
LINE
  5
286
100
AcDbEntity
  8
0
370
           0
  6
Continuous
 62
           7
100
AcDbLine
 10
1.1328120968
 20
1.840312612
 30
0.0
 11
1.1328120968
 21
2.0078127464
 31
0.0
1001
TCAD
1000
TCW_ATTRIBUTE
1002
{
1000
<1.070>
1002
}
  0
LINE
  5
287
100
AcDbEntity
  8
0
370
           0
  6
Continuous
 62
           7
100
AcDbLine
 10
2.203125364
 20
1.8881252072
 30
0.0
 11
2.203125364
 21
2.0078127464
 31
0.0
1001
TCAD
1000
TCW_ATTRIBUTE
1002
{
1000
<1.070>
1002
}
  0
LWPOLYLINE
  5
288
100
AcDbEntity
  8
0
370
           0
  6
Continuous
 62
           7
100
AcDbPolyline
 90
        4
 70
           0
 10
1.1828120968
 20
1.8828127464
 10
1.1828120968
 20
1.8828127464
 10
1.1828120968
 20
1.8828127464
 10
1.537115554778
 20
1.8828127464
1001
TCAD
1000
TCW_ATTRIBUTE
1002
{
1000
<1.070>
1002
}
  0
LWPOLYLINE
  5
289
100
AcDbEntity
  8
0
370
           0
  6
Continuous
 62
           7
100
AcDbPolyline
 90
        4
 70
           0
 10
2.153125364
 20
1.8828127464
 10
2.153125364
 20
1.8828127464
 10
2.153125364
 20
1.8828127464
 10
1.798821906022
 20
1.8828127464
1001
TCAD
1000
TCW_ATTRIBUTE
1002
{
1000
<1.070>
1002
}
  0
LWPOLYLINE
  5
28B
102
{ACAD_REACTORS
330
28A
102
}
100
AcDbEntity
  8
0
370
           0
  6
Continuous
 62
           7
100
AcDbPolyline
 90
        4
 70
           0
 10
1.1328120968
 20
1.8828127464
 10
1.1828120968
 20
1.8763127464
 10
1.1828120968
 20
1.8893127464
 10
1.1328120968
 20
1.8828127464
1001
TCAD
1000
TCW_ATTRIBUTE
1002
{
1000
<1.070>
1002
}
  0
HATCH
  5
28A
100
AcDbEntity
  8
0
  6
Continuous
 62
           7
100
AcDbHatch
 10
0.0
 20
0.0
 30
0.0
210
0.0
220
0.0
230
1.0
  2
SOLID
 70
           1
 71
           1
 91
        1
 92
        3
 72
           0
 73
           1
 93
        3
 10
1.1328120967999999
 20
1.8828127464
 10
1.1828120968
 20
1.8763127464
 10
1.1828120968
 20
1.8893127463999999
 97
        1
330
28B
 75
           0
 76
           0
 98
        0
1001
TCAD
1000
TCW_ATTRIBUTE
1002
{
1000
<1.070>
1002
}
  0
LWPOLYLINE
  5
28D
102
{ACAD_REACTORS
330
28C
102
}
100
AcDbEntity
  8
0
370
           0
  6
Continuous
 62
           7
100
AcDbPolyline
 90
        4
 70
           0
 10
2.203125364
 20
1.8828127464
 10
2.153125364
 20
1.8893127464
 10
2.153125364
 20
1.8763127464
 10
2.203125364
 20
1.8828127464
1001
TCAD
1000
TCW_ATTRIBUTE
1002
{
1000
<1.070>
1002
}
  0
HATCH
  5
28C
100
AcDbEntity
  8
0
  6
Continuous
 62
           7
100
AcDbHatch
 10
0.0
 20
0.0
 30
0.0
210
0.0
220
0.0
230
1.0
  2
SOLID
 70
           1
 71
           1
 91
        1
 92
        3
 72
           0
 73
           1
 93
        3
 10
2.2031253639999999
 20
1.8828127464
 10
2.1531253640000001
 20
1.8893127463999999
 10
2.1531253640000001
 20
1.8763127464
 97
        1
330
28D
 75
           0
 76
           0
 98
        0
1001
TCAD
1000
TCW_ATTRIBUTE
1002
{
1000
<1.070>
1002
}
  0
MTEXT
  5
28E
100
AcDbEntity
  8
0
  6
Continuous
 62
           7
100
AcDbMText
 10
1.6679687304
 20
1.8828127464
 30
0.0
 40
0.030000000447
 41
0.0
 71
           5
 72
           1
  1
\A1;1.070{}in
 73
           1
 44
1.0
1001
TCAD
1000
TCW_REFPOINT
1002
{
1010
1.6679687304
1020
1.8828127464
1030
0.0
1002
}
1000
TCW_ATTRIBUTE
1002
{
1000
<1.070>
1002
}
  0
ENDBLK
  5
28F
100
AcDbEntity
  8
0
100
AcDbBlockEnd
  0
BLOCK
  5
292
100
AcDbEntity
  8
0
100
AcDbBlockBegin
  2
*D14
 70
           1
 10
0.0
 20
0.0
 30
0.0
  3
*D14
  1

  0
LINE
  5
293
100
AcDbEntity
  8
0
370
           0
  6
Continuous
 62
           7
100
AcDbLine
 10
1.0728120968
 20
1.744812612
 30
0.0
 11
0.8046869512
 21
1.744812612
 31
0.0
1001
TCAD
1000
TCW_ATTRIBUTE
1002
{
1000
drill #39    <0.099>
1002
}
  0
LINE
  5
294
100
AcDbEntity
  8
0
370
           0
  6
Continuous
 62
           7
100
AcDbLine
 10
1.0728120968
 20
1.645812612
 30
0.0
 11
0.8046869512
 21
1.645812612
 31
0.0
1001
TCAD
1000
TCW_ATTRIBUTE
1002
{
1000
drill #39    <0.099>
1002
}
  0
LWPOLYLINE
  5
295
100
AcDbEntity
  8
0
370
           0
  6
Continuous
 62
           7
100
AcDbPolyline
 90
        2
 70
           0
 10
0.9296869512
 20
1.844812612
 10
0.9296869512
 20
1.794812612
1001
TCAD
1000
TCW_ATTRIBUTE
1002
{
1000
drill #39    <0.099>
1002
}
  0
LWPOLYLINE
  5
296
100
AcDbEntity
  8
0
370
           0
  6
Continuous
 62
           7
100
AcDbPolyline
 90
        2
 70
           0
 10
0.9296869512
 20
1.744812612
 40
0.0
 41
0.0
 10
0.9296869512
 20
1.757812612
 40
0.0
 41
0.0
1001
TCAD
1000
TCW_ATTRIBUTE
1002
{
1000
drill #39    <0.099>
1002
}
  0
LWPOLYLINE
  5
297
100
AcDbEntity
  8
0
370
           0
  6
Continuous
 62
           7
100
AcDbPolyline
 90
        2
 70
           0
 10
0.9296869512
 20
1.545812612
 10
0.9296869512
 20
1.595812612
1001
TCAD
1000
TCW_ATTRIBUTE
1002
{
1000
drill #39    <0.099>
1002
}
  0
LWPOLYLINE
  5
298
100
AcDbEntity
  8
0
370
           0
  6
Continuous
 62
           7
100
AcDbPolyline
 90
        2
 70
           0
 10
0.9296869512
 20
1.645812612
 40
0.0
 41
0.0
 10
0.9296869512
 20
1.632812612
 40
0.0
 41
0.0
1001
TCAD
1000
TCW_ATTRIBUTE
1002
{
1000
drill #39    <0.099>
1002
}
  0
LWPOLYLINE
  5
29A
102
{ACAD_REACTORS
330
299
102
}
100
AcDbEntity
  8
0
370
           0
  6
Continuous
 62
           7
100
AcDbPolyline
 90
        4
 70
           0
 10
0.9296869512
 20
1.645812612
 10
0.9231869512
 20
1.595812612
 10
0.9361869512
 20
1.595812612
 10
0.9296869512
 20
1.645812612
1001
TCAD
1000
TCW_ATTRIBUTE
1002
{
1000
drill #39    <0.099>
1002
}
  0
HATCH
  5
299
100
AcDbEntity
  8
0
  6
Continuous
 62
           7
100
AcDbHatch
 10
0.0
 20
0.0
 30
0.0
210
0.0
220
0.0
230
1.0
  2
SOLID
 70
           1
 71
           1
 91
        1
 92
        3
 72
           0
 73
           1
 93
        3
 10
0.9296869512
 20
1.6458126119999998
 10
0.9231869511999999
 20
1.5958126119999998
 10
0.9361869511999998
 20
1.5958126119999998
 97
        1
330
29A
 75
           0
 76
           0
 98
        0
1001
TCAD
1000
TCW_ATTRIBUTE
1002
{
1000
drill #39    <0.099>
1002
}
  0
LWPOLYLINE
  5
29C
102
{ACAD_REACTORS
330
29B
102
}
100
AcDbEntity
  8
0
370
           0
  6
Continuous
 62
           7
100
AcDbPolyline
 90
        4
 70
           0
 10
0.9296869512
 20
1.744812612
 10
0.9361869512
 20
1.794812612
 10
0.9231869512
 20
1.794812612
 10
0.9296869512
 20
1.744812612
1001
TCAD
1000
TCW_ATTRIBUTE
1002
{
1000
drill #39    <0.099>
1002
}
  0
HATCH
  5
29B
100
AcDbEntity
  8
0
  6
Continuous
 62
           7
100
AcDbHatch
 10
0.0
 20
0.0
 30
0.0
210
0.0
220
0.0
230
1.0
  2
SOLID
 70
           1
 71
           1
 91
        1
 92
        3
 72
           0
 73
           1
 93
        3
 10
0.9296869512000002
 20
1.7448126120000003
 10
0.9361869512000003
 20
1.7948126120000003
 10
0.9231869512000004
 20
1.7948126120000003
 97
        1
330
29C
 75
           0
 76
           0
 98
        0
1001
TCAD
1000
TCW_ATTRIBUTE
1002
{
1000
drill #39    <0.099>
1002
}
  0
MTEXT
  5
29D
100
AcDbEntity
  8
0
  6
Continuous
 62
           7
100
AcDbMText
 10
0.9296869512
 20
1.695312612
 30
0.0
 40
0.030000000447
 41
0.0
 71
           5
 72
           1
  1
\A1;drill #39    0.099{}in
 73
           1
 44
1.0
1001
TCAD
1000
TCW_REFPOINT
1002
{
1010
0.9296869512
1020
1.695312612
1030
0.0
1002
}
1000
TCW_ATTRIBUTE
1002
{
1000
drill #39    <0.099>
1002
}
  0
ENDBLK
  5
29E
100
AcDbEntity
  8
0
100
AcDbBlockEnd
  0
BLOCK
  5
2A5
100
AcDbEntity
  8
0
100
AcDbBlockBegin
  2
*D15
 70
           1
 10
0.0
 20
0.0
 30
0.0
  3
*D15
  1

  0
LINE
  5
2A6
100
AcDbEntity
  8
0
370
           0
  6
Continuous
 62
           7
100
AcDbLine
 10
1.1353121416
 20
1.0859371416
 30
0.0
 11
0.9140620296
 21
1.0859371416
 31
0.0
1001
TCAD
1000
TCW_ATTRIBUTE
1002
{
1000
<0.094>
1002
}
  0
LINE
  5
2A7
100
AcDbEntity
  8
0
370
           0
  6
Continuous
 62
           7
100
AcDbLine
 10
1.1353121416
 20
0.9921871416
 30
0.0
 11
0.9140620296
 21
0.9921871416
 31
0.0
1001
TCAD
1000
TCW_ATTRIBUTE
1002
{
1000
<0.094>
1002
}
  0
LWPOLYLINE
  5
2A8
100
AcDbEntity
  8
0
370
           0
  6
Continuous
 62
           7
100
AcDbPolyline
 90
        2
 70
           0
 10
1.0390620296
 20
1.1859371416
 10
1.0390620296
 20
1.1359371416
1001
TCAD
1000
TCW_ATTRIBUTE
1002
{
1000
<0.094>
1002
}
  0
LWPOLYLINE
  5
2A9
100
AcDbEntity
  8
0
370
           0
  6
Continuous
 62
           7
100
AcDbPolyline
 90
        2
 70
           0
 10
1.0390620296
 20
1.0859371416
 40
0.0
 41
0.0
 10
1.0390620296
 20
1.1015621416
 40
0.0
 41
0.0
1001
TCAD
1000
TCW_ATTRIBUTE
1002
{
1000
<0.094>
1002
}
  0
LWPOLYLINE
  5
2AA
100
AcDbEntity
  8
0
370
           0
  6
Continuous
 62
           7
100
AcDbPolyline
 90
        2
 70
           0
 10
1.0390620296
 20
0.8921871416
 10
1.0390620296
 20
0.9421871416
1001
TCAD
1000
TCW_ATTRIBUTE
1002
{
1000
<0.094>
1002
}
  0
LWPOLYLINE
  5
2AB
100
AcDbEntity
  8
0
370
           0
  6
Continuous
 62
           7
100
AcDbPolyline
 90
        2
 70
           0
 10
1.0390620296
 20
0.9921871416
 40
0.0
 41
0.0
 10
1.0390620296
 20
0.9765621416
 40
0.0
 41
0.0
1001
TCAD
1000
TCW_ATTRIBUTE
1002
{
1000
<0.094>
1002
}
  0
LWPOLYLINE
  5
2AD
102
{ACAD_REACTORS
330
2AC
102
}
100
AcDbEntity
  8
0
370
           0
  6
Continuous
 62
           7
100
AcDbPolyline
 90
        4
 70
           0
 10
1.0390620296
 20
0.9921871416
 10
1.0325620296
 20
0.9421871416
 10
1.0455620296
 20
0.9421871416
 10
1.0390620296
 20
0.9921871416
1001
TCAD
1000
TCW_ATTRIBUTE
1002
{
1000
<0.094>
1002
}
  0
HATCH
  5
2AC
100
AcDbEntity
  8
0
  6
Continuous
 62
           7
100
AcDbHatch
 10
0.0
 20
0.0
 30
0.0
210
0.0
220
0.0
230
1.0
  2
SOLID
 70
           1
 71
           1
 91
        1
 92
        3
 72
           0
 73
           1
 93
        3
 10
1.0390620295999999
 20
0.9921871415999997
 10
1.0325620296
 20
0.9421871415999996
 10
1.0455620295999999
 20
0.9421871415999996
 97
        1
330
2AD
 75
           0
 76
           0
 98
        0
1001
TCAD
1000
TCW_ATTRIBUTE
1002
{
1000
<0.094>
1002
}
  0
LWPOLYLINE
  5
2AF
102
{ACAD_REACTORS
330
2AE
102
}
100
AcDbEntity
  8
0
370
           0
  6
Continuous
 62
           7
100
AcDbPolyline
 90
        4
 70
           0
 10
1.0390620296
 20
1.0859371416
 10
1.0455620296
 20
1.1359371416
 10
1.0325620296
 20
1.1359371416
 10
1.0390620296
 20
1.0859371416
1001
TCAD
1000
TCW_ATTRIBUTE
1002
{
1000
<0.094>
1002
}
  0
HATCH
  5
2AE
100
AcDbEntity
  8
0
  6
Continuous
 62
           7
100
AcDbHatch
 10
0.0
 20
0.0
 30
0.0
210
0.0
220
0.0
230
1.0
  2
SOLID
 70
           1
 71
           1
 91
        1
 92
        3
 72
           0
 73
           1
 93
        3
 10
1.0390620295999999
 20
1.0859371415999997
 10
1.0455620295999999
 20
1.1359371415999997
 10
1.0325620296
 20
1.1359371415999997
 97
        1
330
2AF
 75
           0
 76
           0
 98
        0
1001
TCAD
1000
TCW_ATTRIBUTE
1002
{
1000
<0.094>
1002
}
  0
MTEXT
  5
2B0
100
AcDbEntity
  8
0
  6
Continuous
 62
           7
100
AcDbMText
 10
1.0390620296
 20
1.0390621416
 30
0.0
 40
0.030000000447
 41
0.0
 71
           5
 72
           1
  1
\A1;0.094{}in
 73
           1
 44
1.0
1001
TCAD
1000
TCW_REFPOINT
1002
{
1010
1.0390620296
1020
1.0390621416
1030
0.0
1002
}
1000
TCW_ATTRIBUTE
1002
{
1000
<0.094>
1002
}
  0
ENDBLK
  5
2B1
100
AcDbEntity
  8
0
100
AcDbBlockEnd
  0
BLOCK
  5
2BC
100
AcDbEntity
  8
0
100
AcDbBlockBegin
  2
*D16
 70
           1
 10
0.0
 20
0.0
 30
0.0
  3
*D16
  1

  0
LINE
  5
2BD
100
AcDbEntity
  8
0
370
           0
  6
Continuous
 62
           7
100
AcDbLine
 10
3.336335589978
 20
0.677186884
 30
0.0
 11
3.336335589978
 21
0.8671869736
 31
0.0
1001
TCAD
1000
TCW_ATTRIBUTE
1002
{
1000
<0.094>
1002
}
  0
LINE
  5
2BE
100
AcDbEntity
  8
0
370
           0
  6
Continuous
 62
           7
100
AcDbLine
 10
3.430085657178
 20
0.677186884
 30
0.0
 11
3.430085657178
 21
0.8671869736
 31
0.0
1001
TCAD
1000
TCW_ATTRIBUTE
1002
{
1000
<0.094>
1002
}
  0
LWPOLYLINE
  5
2BF
100
AcDbEntity
  8
0
370
           0
  6
Continuous
 62
           7
100
AcDbPolyline
 90
        2
 70
           0
 10
3.236335589978
 20
0.7421869736
 10
3.286335589978
 20
0.7421869736
1001
TCAD
1000
TCW_ATTRIBUTE
1002
{
1000
<0.094>
1002
}
  0
LWPOLYLINE
  5
2C0
100
AcDbEntity
  8
0
370
           0
  6
Continuous
 62
           7
100
AcDbPolyline
 90
        2
 70
           0
 10
3.336335589978
 20
0.7421869736
 40
0.0
 41
0.0
 10
3.430085657178
 20
0.7421869736
 40
0.0
 41
0.0
1001
TCAD
1000
TCW_ATTRIBUTE
1002
{
1000
<0.094>
1002
}
  0
LWPOLYLINE
  5
2C1
100
AcDbEntity
  8
0
370
           0
  6
Continuous
 62
           7
100
AcDbPolyline
 90
        3
 70
           0
 10
3.580085657178
 20
0.7421869736
 10
3.530085657178
 20
0.7421869736
 10
3.480085657178
 20
0.7421869736
1001
TCAD
1000
TCW_ATTRIBUTE
1002
{
1000
<0.094>
1002
}
  0
LWPOLYLINE
  5
2C3
102
{ACAD_REACTORS
330
2C2
102
}
100
AcDbEntity
  8
0
370
           0
  6
Continuous
 62
           7
100
AcDbPolyline
 90
        4
 70
           0
 10
3.430085657178
 20
0.7421869736
 10
3.480085657178
 20
0.7356869736
 10
3.480085657178
 20
0.7486869736
 10
3.430085657178
 20
0.7421869736
1001
TCAD
1000
TCW_ATTRIBUTE
1002
{
1000
<0.094>
1002
}
  0
HATCH
  5
2C2
100
AcDbEntity
  8
0
  6
Continuous
 62
           7
100
AcDbHatch
 10
0.0
 20
0.0
 30
0.0
210
0.0
220
0.0
230
1.0
  2
SOLID
 70
           1
 71
           1
 91
        1
 92
        3
 72
           0
 73
           1
 93
        3
 10
3.4300856571782834
 20
0.7421869735999999
 10
3.4800856571782832
 20
0.7356869735999998
 10
3.4800856571782832
 20
0.7486869735999997
 97
        1
330
2C3
 75
           0
 76
           0
 98
        0
1001
TCAD
1000
TCW_ATTRIBUTE
1002
{
1000
<0.094>
1002
}
  0
LWPOLYLINE
  5
2C5
102
{ACAD_REACTORS
330
2C4
102
}
100
AcDbEntity
  8
0
370
           0
  6
Continuous
 62
           7
100
AcDbPolyline
 90
        4
 70
           0
 10
3.336335589978
 20
0.7421869736
 10
3.286335589978
 20
0.7486869736
 10
3.286335589978
 20
0.7356869736
 10
3.336335589978
 20
0.7421869736
1001
TCAD
1000
TCW_ATTRIBUTE
1002
{
1000
<0.094>
1002
}
  0
HATCH
  5
2C4
100
AcDbEntity
  8
0
  6
Continuous
 62
           7
100
AcDbHatch
 10
0.0
 20
0.0
 30
0.0
210
0.0
220
0.0
230
1.0
  2
SOLID
 70
           1
 71
           1
 91
        1
 92
        3
 72
           0
 73
           1
 93
        3
 10
3.3363355899782836
 20
0.7421869736
 10
3.2863355899782838
 20
0.7486869736
 10
3.2863355899782838
 20
0.7356869736000001
 97
        1
330
2C5
 75
           0
 76
           0
 98
        0
1001
TCAD
1000
TCW_ATTRIBUTE
1002
{
1000
<0.094>
1002
}
  0
MTEXT
  5
2C6
100
AcDbEntity
  8
0
  6
Continuous
 62
           7
100
AcDbMText
 10
3.7109388328
 20
0.7421869736
 30
0.0
 40
0.030000000447
 41
0.0
 71
           5
 72
           1
  1
\A1;0.094{}in
 73
           1
 44
1.0
1001
TCAD
1000
TCW_REFPOINT
1002
{
1010
3.7109388328
1020
0.7421869736
1030
0.0
1002
}
1000
TCW_ATTRIBUTE
1002
{
1000
<0.094>
1002
}
  0
ENDBLK
  5
2C7
100
AcDbEntity
  8
0
100
AcDbBlockEnd
  0
ENDSEC
  0
SECTION
  2
ENTITIES
  0
LINE
  5
33
100
AcDbEntity
  8
0
370
           0
  6
Continuous
 62
           7
 48
0.300000011921
100
AcDbLine
 10
0.3203116936
 20
0.8359367832
 30
0.0
 11
0.3203116936
 21
0.0859367832
 31
0.0
1001
TCAD
1000
TCW_CUSTOM_DATA
1002
{
1000
#$AUX@_ToolInfo Properties
1070
           8
1000
Modify^JMeet2Lines@Meet2Lines
1002
}
  0
LINE
  5
34
100
AcDbEntity
  8
0
370
           0
  6
Continuous
 62
           7
 48
0.300000011921
100
AcDbLine
 10
0.8203116936
 20
0.8359367832
 30
0.0
 11
0.8203116936
 21
0.0859367832
 31
0.0
1001
TCAD
1000
TCW_CUSTOM_DATA
1002
{
1000
#$AUX@_ToolInfo Properties
1070
           8
1000
Modify^JMeet2Lines@Meet2Lines
1002
}
  0
LINE
  5
35
100
AcDbEntity
  8
0
370
           0
  6
Continuous
 62
           7
 48
0.300000011921
100
AcDbLine
 10
0.3828116936
 20
0.8359367832
 30
0.0
 11
0.3828116936
 21
0.0859367832
 31
0.0
1001
TCAD
1000
TCW_CUSTOM_DATA
1002
{
1000
#$AUX@_ToolInfo Properties
1070
           8
1000
Insert^JLine^JSingle@Line Single
1002
}
  0
LINE
  5
36
100
AcDbEntity
  8
0
370
           0
  6
Continuous
 62
           7
 48
0.300000011921
100
AcDbLine
 10
0.7578116936
 20
0.8359367832
 30
0.0
 11
0.7578116936
 21
0.0859367832
 31
0.0
1001
TCAD
1000
TCW_CUSTOM_DATA
1002
{
1000
#$AUX@_ToolInfo Properties
1070
           8
1000
Insert^JLine^JSingle@Line Single
1002
}
  0
LINE
  5
37
100
AcDbEntity
  8
0
370
           0
  6
Continuous
 62
           7
 48
0.300000011921
100
AcDbLine
 10
0.7578116936
 20
0.8359367832
 30
0.0
 11
0.8203116936
 21
0.8359367832
 31
0.0
1001
TCAD
1000
TCW_CUSTOM_DATA
1002
{
1000
#$AUX@_ToolInfo Properties
1070
           8
1000
Insert^JLine^JSingle@Line Single
1002
}
  0
LINE
  5
38
100
AcDbEntity
  8
0
370
           0
  6
Continuous
 62
           7
 48
0.300000011921
100
AcDbLine
 10
0.2578116936
 20
0.8984367832
 30
0.0
 11
0.2578116936
 21
0.7734367832
 31
0.0
1001
TCAD
1000
TCW_CUSTOM_DATA
1002
{
1000
#$AUX@_ToolInfo Properties
1070
           8
1000
Modify^JMeet2Lines@Meet2Lines
1002
}
  0
LINE
  5
39
100
AcDbEntity
  8
0
370
           0
  6
Continuous
 62
           7
 48
0.300000011921
100
AcDbLine
 10
0.8828116936
 20
0.8984367832
 30
0.0
 11
0.8828116936
 21
0.7734367832
 31
0.0
1001
TCAD
1000
TCW_CUSTOM_DATA
1002
{
1000
#$AUX@_ToolInfo Properties
1070
           8
1000
Modify^JMeet2Lines@Meet2Lines
1002
}
  0
LINE
  5
3A
100
AcDbEntity
  8
0
370
           0
  6
Continuous
 62
           7
 48
0.300000011921
100
AcDbLine
 10
0.8828116936
 20
0.1484367832
 30
0.0
 11
0.8828116936
 21
0.0234367832
 31
0.0
1001
TCAD
1000
TCW_CUSTOM_DATA
1002
{
1000
#$AUX@_ToolInfo Properties
1070
           8
1000
Modify^JMeet2Lines@Meet2Lines
1002
}
  0
LINE
  5
3B
100
AcDbEntity
  8
0
370
           0
  6
Continuous
 62
           7
 48
0.300000011921
100
AcDbLine
 10
0.2578116936
 20
0.1484367832
 30
0.0
 11
0.2578116936
 21
0.0234367832
 31
0.0
1001
TCAD
1000
TCW_CUSTOM_DATA
1002
{
1000
#$AUX@_ToolInfo Properties
1070
           8
1000
Modify^JMeet2Lines@Meet2Lines
1002
}
  0
LINE
  5
3C
100
AcDbEntity
  8
0
370
           0
  6
Continuous
 62
           7
 48
0.300000011921
100
AcDbLine
 10
0.2578116936
 20
0.7734367832
 30
0.0
 11
0.3203116936
 21
0.7734367832
 31
0.0
1001
TCAD
1000
TCW_CUSTOM_DATA
1002
{
1000
#$AUX@_ToolInfo Properties
1070
           8
1000
Modify^JMeet2Lines@Meet2Lines
1002
}
  0
LINE
  5
3D
100
AcDbEntity
  8
0
370
           0
  6
Continuous
 62
           7
 48
0.300000011921
100
AcDbLine
 10
0.8203116936
 20
0.7734367832
 30
0.0
 11
0.8828116936
 21
0.7734367832
 31
0.0
1001
TCAD
1000
TCW_CUSTOM_DATA
1002
{
1000
#$AUX@_ToolInfo Properties
1070
           8
1000
Insert^JLine^JSingle@Line Single
1002
}
  0
LINE
  5
3E
100
AcDbEntity
  8
0
370
           0
  6
Continuous
 62
           7
 48
0.300000011921
100
AcDbLine
 10
0.8203116936
 20
0.1484367832
 30
0.0
 11
0.8828116936
 21
0.1484367832
 31
0.0
1001
TCAD
1000
TCW_CUSTOM_DATA
1002
{
1000
#$AUX@_ToolInfo Properties
1070
           8
1000
Insert^JLine^JSingle@Line Single
1002
}
  0
LINE
  5
3F
100
AcDbEntity
  8
0
370
           0
  6
Continuous
 62
           7
 48
0.300000011921
100
AcDbLine
 10
0.2578116936
 20
0.1484367832
 30
0.0
 11
0.3203116936
 21
0.1484367832
 31
0.0
1001
TCAD
1000
TCW_CUSTOM_DATA
1002
{
1000
#$AUX@_ToolInfo Properties
1070
           8
1000
Insert^JLine^JSingle@Line Single
1002
}
  0
LINE
  5
40
100
AcDbEntity
  8
0
370
           0
  6
Continuous
 62
           7
 48
0.300000011921
100
AcDbLine
 10
0.3203116936
 20
0.0859367832
 30
0.0
 11
0.4765616936
 21
0.0859367832
 31
0.0
  0
LINE
  5
41
100
AcDbEntity
  8
0
370
           0
  6
Continuous
 62
           7
 48
0.300000011921
100
AcDbLine
 10
0.6484366936
 20
0.0859367832
 30
0.0
 11
0.8203116936
 21
0.0859367832
 31
0.0
  0
LINE
  5
42
100
AcDbEntity
  8
0
370
           0
  6
Continuous
 62
           7
 48
0.300000011921
100
AcDbLine
 10
0.2578116936
 20
0.0234367832
 30
0.0
 11
0.4765616936
 21
0.0234367832
 31
0.0
  0
LINE
  5
43
100
AcDbEntity
  8
0
370
           0
  6
Continuous
 62
           7
 48
0.300000011921
100
AcDbLine
 10
0.6484366936
 20
0.0234367832
 30
0.0
 11
0.8828116936
 21
0.0234367832
 31
0.0
  0
LINE
  5
44
100
AcDbEntity
  8
0
370
           0
  6
Continuous
 62
           7
 48
0.300000011921
100
AcDbLine
 10
0.2578116936
 20
0.8984367832
 30
0.0
 11
0.4765616936
 21
0.8984367832
 31
0.0
1001
TCAD
1000
TCW_REFPOINT
1002
{
1010
0.3671866936
1020
0.8984367832
1030
0.0
1002
}
  0
LINE
  5
45
100
AcDbEntity
  8
0
370
           0
  6
Continuous
 62
           7
 48
0.300000011921
100
AcDbLine
 10
0.6640616936
 20
0.8984367832
 30
0.0
 11
0.8828116936
 21
0.8984367832
 31
0.0
  0
LINE
  5
46
100
AcDbEntity
  8
0
370
           0
  6
Continuous
 62
           7
 48
0.300000011921
100
AcDbLine
 10
0.3203116936
 20
0.8359367832
 30
0.0
 11
0.4765616936
 21
0.8359367832
 31
0.0
1001
TCAD
1000
TCW_REFPOINT
1002
{
1010
0.3984366936
1020
0.8359367832
1030
0.0
1002
}
  0
LINE
  5
47
100
AcDbEntity
  8
0
370
           0
  6
Continuous
 62
           7
 48
0.300000011921
100
AcDbLine
 10
0.6640616936
 20
0.8359367832
 30
0.0
 11
0.8203116936
 21
0.8359367832
 31
0.0
  0
LINE
  5
48
100
AcDbEntity
  8
0
370
           0
  6
Continuous
 62
           7
 48
0.300000011921
100
AcDbLine
 10
0.3828116936
 20
0.0234367832
 30
0.0
 11
0.3828116936
 21
-0.1328132168
 31
0.0
1001
TCAD
1000
TCW_CUSTOM_DATA
1002
{
1000
#$AUX@_ToolInfo Properties
1070
           8
1000
Insert^JLine^JSingle@Line Single
1002
}
  0
LINE
  5
49
100
AcDbEntity
  8
0
370
           0
  6
Continuous
 62
           7
 48
0.300000011921
100
AcDbLine
 10
0.3828116936
 20
-0.1328132168
 30
0.0
 11
0.4765616936
 21
-0.1328132168
 31
0.0
  0
LINE
  5
4A
100
AcDbEntity
  8
0
370
           0
  6
Continuous
 62
           7
 48
0.300000011921
100
AcDbLine
 10
0.6484366936
 20
-0.1328132168
 30
0.0
 11
0.7578116936
 21
-0.1328132168
 31
0.0
1001
TCAD
1000
TCW_CUSTOM_DATA
1002
{
1000
#$AUX@_ToolInfo Properties
1070
           8
1000
Modify^JMeet2Lines@Meet2Lines
1002
}
  0
LINE
  5
4B
100
AcDbEntity
  8
0
370
           0
  6
Continuous
 62
           7
 48
0.300000011921
100
AcDbLine
 10
0.7578116936
 20
0.0234367832
 30
0.0
 11
0.7578116936
 21
-0.1328132168
 31
0.0
1001
TCAD
1000
TCW_CUSTOM_DATA
1002
{
1000
#$AUX@_ToolInfo Properties
1070
           8
1000
Modify^JMeet2Lines@Meet2Lines
1002
}
  0
LINE
  5
4C
100
AcDbEntity
  8
0
370
           0
  6
Continuous
 62
           7
 48
0.300000011921
100
AcDbLine
 10
0.4765616936
 20
0.0859367832
 30
0.0
 11
0.4921866936
 21
0.0781242832
 31
0.0
1001
TCAD
1000
TCW_CUSTOM_DATA
1002
{
1000
#$AUX@_ToolInfo Properties
1070
           8
1000
Insert^JLine^JSingle@Line Single
1002
}
  0
LINE
  5
4D
100
AcDbEntity
  8
0
370
           0
  6
Continuous
 62
           7
 48
0.300000011921
100
AcDbLine
 10
0.4921866936
 20
0.0781242832
 30
0.0
 11
0.4765616936
 21
0.0703117832
 31
0.0
1001
TCAD
1000
TCW_CUSTOM_DATA
1002
{
1000
#$AUX@_ToolInfo Properties
1070
           8
1000
Insert^JLine^JSingle@Line Single
1002
}
  0
LINE
  5
4E
100
AcDbEntity
  8
0
370
           0
  6
Continuous
 62
           7
 48
0.300000011921
100
AcDbLine
 10
0.4765616936
 20
0.0703117832
 30
0.0
 11
0.4921866936
 21
0.0624992832
 31
0.0
1001
TCAD
1000
TCW_CUSTOM_DATA
1002
{
1000
#$AUX@_ToolInfo Properties
1070
           8
1000
Insert^JLine^JSingle@Line Single
1002
}
  0
LINE
  5
4F
100
AcDbEntity
  8
0
370
           0
  6
Continuous
 62
           7
 48
0.300000011921
100
AcDbLine
 10
0.4921866936
 20
0.0624992832
 30
0.0
 11
0.4765616936
 21
0.0546867832
 31
0.0
1001
TCAD
1000
TCW_CUSTOM_DATA
1002
{
1000
#$AUX@_ToolInfo Properties
1070
           8
1000
Insert^JLine^JSingle@Line Single
1002
}
  0
LINE
  5
50
100
AcDbEntity
  8
0
370
           0
  6
Continuous
 62
           7
 48
0.300000011921
100
AcDbLine
 10
0.4765616936
 20
0.0546867832
 30
0.0
 11
0.4921866936
 21
0.0468742832
 31
0.0
1001
TCAD
1000
TCW_CUSTOM_DATA
1002
{
1000
#$AUX@_ToolInfo Properties
1070
           8
1000
Insert^JLine^JSingle@Line Single
1002
}
  0
LINE
  5
51
100
AcDbEntity
  8
0
370
           0
  6
Continuous
 62
           7
 48
0.300000011921
100
AcDbLine
 10
0.4921866936
 20
0.0468742832
 30
0.0
 11
0.4765616936
 21
0.0390617832
 31
0.0
1001
TCAD
1000
TCW_CUSTOM_DATA
1002
{
1000
#$AUX@_ToolInfo Properties
1070
           8
1000
Insert^JLine^JSingle@Line Single
1002
}
  0
LINE
  5
52
100
AcDbEntity
  8
0
370
           0
  6
Continuous
 62
           7
 48
0.300000011921
100
AcDbLine
 10
0.4765616936
 20
0.0390617832
 30
0.0
 11
0.4921866936
 21
0.0312492832
 31
0.0
1001
TCAD
1000
TCW_CUSTOM_DATA
1002
{
1000
#$AUX@_ToolInfo Properties
1070
           8
1000
Insert^JLine^JSingle@Line Single
1002
}
  0
LINE
  5
53
100
AcDbEntity
  8
0
370
           0
  6
Continuous
 62
           7
 48
0.300000011921
100
AcDbLine
 10
0.4921866936
 20
0.0312492832
 30
0.0
 11
0.4765616936
 21
0.0234367832
 31
0.0
1001
TCAD
1000
TCW_CUSTOM_DATA
1002
{
1000
#$AUX@_ToolInfo Properties
1070
           8
1000
Insert^JLine^JSingle@Line Single
1002
}
  0
LINE
  5
54
100
AcDbEntity
  8
0
370
           0
  6
Continuous
 62
           7
 48
0.300000011921
100
AcDbLine
 10
0.4765616936
 20
0.0234367832
 30
0.0
 11
0.4921866936
 21
0.0156242832
 31
0.0
1001
TCAD
1000
TCW_CUSTOM_DATA
1002
{
1000
#$AUX@_ToolInfo Properties
1070
           8
1000
Insert^JLine^JSingle@Line Single
1002
}
  0
LINE
  5
55
100
AcDbEntity
  8
0
370
           0
  6
Continuous
 62
           7
 48
0.300000011921
100
AcDbLine
 10
0.4921866936
 20
0.0156242832
 30
0.0
 11
0.4765616936
 21
0.0078117832
 31
0.0
1001
TCAD
1000
TCW_CUSTOM_DATA
1002
{
1000
#$AUX@_ToolInfo Properties
1070
           8
1000
Insert^JLine^JSingle@Line Single
1002
}
  0
LINE
  5
56
100
AcDbEntity
  8
0
370
           0
  6
Continuous
 62
           7
 48
0.300000011921
100
AcDbLine
 10
0.4765616936
 20
0.0078117832
 30
0.0
 11
0.4921866936
 21
-0.0000007168
 31
0.0
1001
TCAD
1000
TCW_CUSTOM_DATA
1002
{
1000
#$AUX@_ToolInfo Properties
1070
           8
1000
Insert^JLine^JSingle@Line Single
1002
}
  0
LINE
  5
57
100
AcDbEntity
  8
0
370
           0
  6
Continuous
 62
           7
 48
0.300000011921
100
AcDbLine
 10
0.4921866936
 20
-0.0000007168
 30
0.0
 11
0.4765616936
 21
-0.0078132168
 31
0.0
1001
TCAD
1000
TCW_CUSTOM_DATA
1002
{
1000
#$AUX@_ToolInfo Properties
1070
           8
1000
Insert^JLine^JSingle@Line Single
1002
}
  0
LINE
  5
58
100
AcDbEntity
  8
0
370
           0
  6
Continuous
 62
           7
 48
0.300000011921
100
AcDbLine
 10
0.4765616936
 20
-0.0078132168
 30
0.0
 11
0.4921866936
 21
-0.0156257168
 31
0.0
1001
TCAD
1000
TCW_CUSTOM_DATA
1002
{
1000
#$AUX@_ToolInfo Properties
1070
           8
1000
Insert^JLine^JSingle@Line Single
1002
}
  0
LINE
  5
59
100
AcDbEntity
  8
0
370
           0
  6
Continuous
 62
           7
 48
0.300000011921
100
AcDbLine
 10
0.4921866936
 20
-0.0156257168
 30
0.0
 11
0.4765616936
 21
-0.0234382168
 31
0.0
1001
TCAD
1000
TCW_CUSTOM_DATA
1002
{
1000
#$AUX@_ToolInfo Properties
1070
           8
1000
Insert^JLine^JSingle@Line Single
1002
}
  0
LINE
  5
5A
100
AcDbEntity
  8
0
370
           0
  6
Continuous
 62
           7
 48
0.300000011921
100
AcDbLine
 10
0.4765616936
 20
-0.0234382168
 30
0.0
 11
0.4921866936
 21
-0.0312507168
 31
0.0
1001
TCAD
1000
TCW_CUSTOM_DATA
1002
{
1000
#$AUX@_ToolInfo Properties
1070
           8
1000
Insert^JLine^JSingle@Line Single
1002
}
  0
LINE
  5
5B
100
AcDbEntity
  8
0
370
           0
  6
Continuous
 62
           7
 48
0.300000011921
100
AcDbLine
 10
0.4921866936
 20
-0.0312507168
 30
0.0
 11
0.4765616936
 21
-0.0390632168
 31
0.0
1001
TCAD
1000
TCW_CUSTOM_DATA
1002
{
1000
#$AUX@_ToolInfo Properties
1070
           8
1000
Insert^JLine^JSingle@Line Single
1002
}
  0
LINE
  5
5C
100
AcDbEntity
  8
0
370
           0
  6
Continuous
 62
           7
 48
0.300000011921
100
AcDbLine
 10
0.4765616936
 20
-0.0390632168
 30
0.0
 11
0.4921866936
 21
-0.0468757168
 31
0.0
1001
TCAD
1000
TCW_CUSTOM_DATA
1002
{
1000
#$AUX@_ToolInfo Properties
1070
           8
1000
Insert^JLine^JSingle@Line Single
1002
}
  0
LINE
  5
5D
100
AcDbEntity
  8
0
370
           0
  6
Continuous
 62
           7
 48
0.300000011921
100
AcDbLine
 10
0.4921866936
 20
-0.0468757168
 30
0.0
 11
0.4765616936
 21
-0.0546882168
 31
0.0
1001
TCAD
1000
TCW_CUSTOM_DATA
1002
{
1000
#$AUX@_ToolInfo Properties
1070
           8
1000
Insert^JLine^JSingle@Line Single
1002
}
  0
LINE
  5
5E
100
AcDbEntity
  8
0
370
           0
  6
Continuous
 62
           7
 48
0.300000011921
100
AcDbLine
 10
0.4765616936
 20
0.0859367832
 30
0.0
 11
0.4921866936
 21
0.0937492832
 31
0.0
1001
TCAD
1000
TCW_CUSTOM_DATA
1002
{
1000
#$AUX@_ToolInfo Properties
1070
           8
1000
Insert^JLine^JSingle@Line Single
1002
}
  0
LINE
  5
5F
100
AcDbEntity
  8
0
370
           0
  6
Continuous
 62
           7
 48
0.300000011921
100
AcDbLine
 10
0.4765616936
 20
0.1015617832
 30
0.0
 11
0.4921866936
 21
0.0937492832
 31
0.0
1001
TCAD
1000
TCW_CUSTOM_DATA
1002
{
1000
#$AUX@_ToolInfo Properties
1070
           8
1000
Insert^JLine^JSingle@Line Single
1002
}
  0
LINE
  5
60
100
AcDbEntity
  8
0
370
           0
  6
Continuous
 62
           7
 48
0.300000011921
100
AcDbLine
 10
0.4765616936
 20
-0.0546882168
 30
0.0
 11
0.4921866936
 21
-0.0625007168
 31
0.0
1001
TCAD
1000
TCW_CUSTOM_DATA
1002
{
1000
#$AUX@_ToolInfo Properties
1070
           8
1000
Insert^JLine^JSingle@Line Single
1002
}
  0
LINE
  5
61
100
AcDbEntity
  8
0
370
           0
  6
Continuous
 62
           7
 48
0.300000011921
100
AcDbLine
 10
0.4921866936
 20
-0.0625007168
 30
0.0
 11
0.4765616936
 21
-0.0703132168
 31
0.0
1001
TCAD
1000
TCW_CUSTOM_DATA
1002
{
1000
#$AUX@_ToolInfo Properties
1070
           8
1000
Insert^JLine^JSingle@Line Single
1002
}
  0
LINE
  5
62
100
AcDbEntity
  8
0
370
           0
  6
Continuous
 62
           7
 48
0.300000011921
100
AcDbLine
 10
0.4765616936
 20
-0.0703132168
 30
0.0
 11
0.4921866936
 21
-0.0781257168
 31
0.0
1001
TCAD
1000
TCW_CUSTOM_DATA
1002
{
1000
#$AUX@_ToolInfo Properties
1070
           8
1000
Insert^JLine^JSingle@Line Single
1002
}
  0
LINE
  5
63
100
AcDbEntity
  8
0
370
           0
  6
Continuous
 62
           7
 48
0.300000011921
100
AcDbLine
 10
0.4921866936
 20
-0.0781257168
 30
0.0
 11
0.4765616936
 21
-0.0859382168
 31
0.0
1001
TCAD
1000
TCW_CUSTOM_DATA
1002
{
1000
#$AUX@_ToolInfo Properties
1070
           8
1000
Insert^JLine^JSingle@Line Single
1002
}
  0
LINE
  5
64
100
AcDbEntity
  8
0
370
           0
  6
Continuous
 62
           7
 48
0.300000011921
100
AcDbLine
 10
0.4765616936
 20
-0.0859382168
 30
0.0
 11
0.4921866936
 21
-0.0937507168
 31
0.0
1001
TCAD
1000
TCW_CUSTOM_DATA
1002
{
1000
#$AUX@_ToolInfo Properties
1070
           8
1000
Insert^JLine^JSingle@Line Single
1002
}
  0
LINE
  5
65
100
AcDbEntity
  8
0
370
           0
  6
Continuous
 62
           7
 48
0.300000011921
100
AcDbLine
 10
0.4921866936
 20
-0.0937507168
 30
0.0
 11
0.4765616936
 21
-0.1015632168
 31
0.0
1001
TCAD
1000
TCW_CUSTOM_DATA
1002
{
1000
#$AUX@_ToolInfo Properties
1070
           8
1000
Insert^JLine^JSingle@Line Single
1002
}
  0
LINE
  5
66
100
AcDbEntity
  8
0
370
           0
  6
Continuous
 62
           7
 48
0.300000011921
100
AcDbLine
 10
0.4765616936
 20
-0.1015632168
 30
0.0
 11
0.4921866936
 21
-0.1093757168
 31
0.0
1001
TCAD
1000
TCW_CUSTOM_DATA
1002
{
1000
#$AUX@_ToolInfo Properties
1070
           8
1000
Insert^JLine^JSingle@Line Single
1002
}
  0
LINE
  5
67
100
AcDbEntity
  8
0
370
           0
  6
Continuous
 62
           7
 48
0.300000011921
100
AcDbLine
 10
0.4921866936
 20
-0.1093757168
 30
0.0
 11
0.4765616936
 21
-0.1171882168
 31
0.0
1001
TCAD
1000
TCW_CUSTOM_DATA
1002
{
1000
#$AUX@_ToolInfo Properties
1070
           8
1000
Insert^JLine^JSingle@Line Single
1002
}
  0
LINE
  5
68
100
AcDbEntity
  8
0
370
           0
  6
Continuous
 62
           7
 48
0.300000011921
100
AcDbLine
 10
0.4765616936
 20
-0.1171882168
 30
0.0
 11
0.4921866936
 21
-0.1250007168
 31
0.0
1001
TCAD
1000
TCW_CUSTOM_DATA
1002
{
1000
#$AUX@_ToolInfo Properties
1070
           8
1000
Insert^JLine^JSingle@Line Single
1002
}
  0
LINE
  5
69
100
AcDbEntity
  8
0
370
           0
  6
Continuous
 62
           7
 48
0.300000011921
100
AcDbLine
 10
0.4765616936
 20
-0.1328132168
 30
0.0
 11
0.4921866936
 21
-0.1250007168
 31
0.0
1001
TCAD
1000
TCW_CUSTOM_DATA
1002
{
1000
#$AUX@_ToolInfo Properties
1070
           8
1000
Insert^JLine^JSingle@Line Single
1002
}
  0
LINE
  5
6A
100
AcDbEntity
  8
0
370
           0
  6
Continuous
 62
           7
 48
0.300000011921
100
AcDbLine
 10
0.4765616936
 20
-0.1328132168
 30
0.0
 11
0.4921866936
 21
-0.1406257168
 31
0.0
1001
TCAD
1000
TCW_CUSTOM_DATA
1002
{
1000
#$AUX@_ToolInfo Properties
1070
           8
1000
Insert^JLine^JSingle@Line Single
1002
}
  0
LINE
  5
6B
100
AcDbEntity
  8
0
370
           0
  6
Continuous
 62
           7
 48
0.300000011921
100
AcDbLine
 10
0.4765616936
 20
-0.1484382168
 30
0.0
 11
0.4921866936
 21
-0.1406257168
 31
0.0
1001
TCAD
1000
TCW_CUSTOM_DATA
1002
{
1000
#$AUX@_ToolInfo Properties
1070
           8
1000
Insert^JLine^JSingle@Line Single
1002
}
  0
LINE
  5
6C
100
AcDbEntity
  8
0
370
           0
  6
Continuous
 62
           7
 48
0.300000011921
100
AcDbLine
 10
0.4921866936
 20
-0.1562507168
 30
0.0
 11
0.4765616936
 21
-0.1484382168
 31
0.0
1001
TCAD
1000
TCW_CUSTOM_DATA
1002
{
1000
#$AUX@_ToolInfo Properties
1070
           8
1000
Insert^JLine^JSingle@Line Single
1002
}
  0
LINE
  5
6D
100
AcDbEntity
  8
0
370
           0
  6
Continuous
 62
           7
 48
0.300000011921
100
AcDbLine
 10
0.4921866936
 20
-0.1562507168
 30
0.0
 11
0.4765616936
 21
-0.1640632168
 31
0.0
1001
TCAD
1000
TCW_CUSTOM_DATA
1002
{
1000
#$AUX@_ToolInfo Properties
1070
           8
1000
Insert^JLine^JSingle@Line Single
1002
}
  0
LINE
  5
6E
100
AcDbEntity
  8
0
370
           0
  6
Continuous
 62
           7
 48
0.300000011921
100
AcDbLine
 10
0.4765616936
 20
-0.1640632168
 30
0.0
 11
0.4921866936
 21
-0.1718757168
 31
0.0
1001
TCAD
1000
TCW_CUSTOM_DATA
1002
{
1000
#$AUX@_ToolInfo Properties
1070
           8
1000
Insert^JLine^JSingle@Line Single
1002
}
  0
LINE
  5
6F
100
AcDbEntity
  8
0
370
           0
  6
Continuous
 62
           7
 48
0.300000011921
100
AcDbLine
 10
0.4921866936
 20
-0.1718757168
 30
0.0
 11
0.4765616936
 21
-0.1796882168
 31
0.0
1001
TCAD
1000
TCW_CUSTOM_DATA
1002
{
1000
#$AUX@_ToolInfo Properties
1070
           8
1000
Insert^JLine^JSingle@Line Single
1002
}
  0
LINE
  5
70
100
AcDbEntity
  8
0
370
           0
  6
Continuous
 62
           7
 48
0.300000011921
100
AcDbLine
 10
0.4765616936
 20
-0.1796882168
 30
0.0
 11
0.4921866936
 21
-0.1875007168
 31
0.0
1001
TCAD
1000
TCW_CUSTOM_DATA
1002
{
1000
#$AUX@_ToolInfo Properties
1070
           8
1000
Insert^JLine^JSingle@Line Single
1002
}
  0
LINE
  5
71
100
AcDbEntity
  8
0
370
           0
  6
Continuous
 62
           7
 48
0.300000011921
100
AcDbLine
 10
0.4921866936
 20
-0.1875007168
 30
0.0
 11
0.4765616936
 21
-0.1953132168
 31
0.0
1001
TCAD
1000
TCW_CUSTOM_DATA
1002
{
1000
#$AUX@_ToolInfo Properties
1070
           8
1000
Insert^JLine^JSingle@Line Single
1002
}
  0
LINE
  5
72
100
AcDbEntity
  8
0
370
           0
  6
Continuous
 62
           7
 48
0.300000011921
100
AcDbLine
 10
0.4921866936
 20
-0.2031257168
 30
0.0
 11
0.4765616936
 21
-0.1953132168
 31
0.0
1001
TCAD
1000
TCW_CUSTOM_DATA
1002
{
1000
#$AUX@_ToolInfo Properties
1070
           8
1000
Insert^JLine^JSingle@Line Single
1002
}
  0
LINE
  5
73
100
AcDbEntity
  8
0
370
           0
  6
Continuous
 62
           7
 48
0.300000011921
100
AcDbLine
 10
0.4765616936
 20
-0.2109382168
 30
0.0
 11
0.4921866936
 21
-0.2031257168
 31
0.0
1001
TCAD
1000
TCW_CUSTOM_DATA
1002
{
1000
#$AUX@_ToolInfo Properties
1070
           8
1000
Insert^JLine^JSingle@Line Single
1002
}
  0
LINE
  5
74
100
AcDbEntity
  8
0
370
           0
  6
Continuous
 62
           7
 48
0.300000011921
100
AcDbLine
 10
0.4765616936
 20
-0.2109382168
 30
0.0
 11
0.4921866936
 21
-0.2187507168
 31
0.0
1001
TCAD
1000
TCW_CUSTOM_DATA
1002
{
1000
#$AUX@_ToolInfo Properties
1070
           8
1000
Insert^JLine^JSingle@Line Single
1002
}
  0
LINE
  5
75
100
AcDbEntity
  8
0
370
           0
  6
Continuous
 62
           7
 48
0.300000011921
100
AcDbLine
 10
0.4921866936
 20
-0.2187507168
 30
0.0
 11
0.4765616936
 21
-0.2265632168
 31
0.0
1001
TCAD
1000
TCW_CUSTOM_DATA
1002
{
1000
#$AUX@_ToolInfo Properties
1070
           8
1000
Insert^JLine^JSingle@Line Single
1002
}
  0
LINE
  5
76
100
AcDbEntity
  8
0
370
           0
  6
Continuous
 62
           7
 48
0.300000011921
100
AcDbLine
 10
0.4765616936
 20
-0.2265632168
 30
0.0
 11
0.4921866936
 21
-0.2343757168
 31
0.0
1001
TCAD
1000
TCW_CUSTOM_DATA
1002
{
1000
#$AUX@_ToolInfo Properties
1070
           8
1000
Insert^JLine^JSingle@Line Single
1002
}
  0
LINE
  5
77
100
AcDbEntity
  8
0
370
           0
  6
Continuous
 62
           7
 48
0.300000011921
100
AcDbLine
 10
0.4765616936
 20
-0.2421882168
 30
0.0
 11
0.4921866936
 21
-0.2343757168
 31
0.0
1001
TCAD
1000
TCW_CUSTOM_DATA
1002
{
1000
#$AUX@_ToolInfo Properties
1070
           8
1000
Insert^JLine^JSingle@Line Single
1002
}
  0
LINE
  5
78
100
AcDbEntity
  8
0
370
           0
  6
Continuous
 62
           7
 48
0.300000011921
100
AcDbLine
 10
0.4765616936
 20
-0.2421882168
 30
0.0
 11
0.4921866936
 21
-0.2500007168
 31
0.0
1001
TCAD
1000
TCW_CUSTOM_DATA
1002
{
1000
#$AUX@_ToolInfo Properties
1070
           8
1000
Insert^JLine^JSingle@Line Single
1002
}
  0
LINE
  5
79
100
AcDbEntity
  8
0
370
           0
  6
Continuous
 62
           7
 48
0.300000011921
100
AcDbLine
 10
0.4921866936
 20
-0.2500007168
 30
0.0
 11
0.4765616936
 21
-0.2578132168
 31
0.0
1001
TCAD
1000
TCW_CUSTOM_DATA
1002
{
1000
#$AUX@_ToolInfo Properties
1070
           8
1000
Insert^JLine^JSingle@Line Single
1002
}
  0
LINE
  5
7A
100
AcDbEntity
  8
0
370
           0
  6
Continuous
 62
           7
 48
0.300000011921
100
AcDbLine
 10
0.4921866936
 20
-0.2656257168
 30
0.0
 11
0.4765616936
 21
-0.2578132168
 31
0.0
1001
TCAD
1000
TCW_CUSTOM_DATA
1002
{
1000
#$AUX@_ToolInfo Properties
1070
           8
1000
Insert^JLine^JSingle@Line Single
1002
}
  0
LINE
  5
7B
100
AcDbEntity
  8
0
370
           0
  6
Continuous
 62
           7
 48
0.300000011921
100
AcDbLine
 10
0.4765616936
 20
-0.2734382168
 30
0.0
 11
0.4921866936
 21
-0.2656257168
 31
0.0
1001
TCAD
1000
TCW_CUSTOM_DATA
1002
{
1000
#$AUX@_ToolInfo Properties
1070
           8
1000
Insert^JLine^JSingle@Line Single
1002
}
  0
LINE
  5
7C
100
AcDbEntity
  8
0
370
           0
  6
Continuous
 62
           7
 48
0.300000011921
100
AcDbLine
 10
0.4765616936
 20
-0.2734382168
 30
0.0
 11
0.4921866936
 21
-0.2812507168
 31
0.0
1001
TCAD
1000
TCW_CUSTOM_DATA
1002
{
1000
#$AUX@_ToolInfo Properties
1070
           8
1000
Insert^JLine^JSingle@Line Single
1002
}
  0
LINE
  5
7D
100
AcDbEntity
  8
0
370
           0
  6
Continuous
 62
           7
 48
0.300000011921
100
AcDbLine
 10
0.4921866936
 20
-0.2812507168
 30
0.0
 11
0.4765616936
 21
-0.2890632168
 31
0.0
1001
TCAD
1000
TCW_CUSTOM_DATA
1002
{
1000
#$AUX@_ToolInfo Properties
1070
           8
1000
Insert^JLine^JSingle@Line Single
1002
}
  0
LINE
  5
7E
100
AcDbEntity
  8
0
370
           0
  6
Continuous
 62
           7
 48
0.300000011921
100
AcDbLine
 10
0.6640616936
 20
0.0937492832
 30
0.0
 11
0.6484366936
 21
0.0859367832
 31
0.0
1001
TCAD
1000
TCW_CUSTOM_DATA
1002
{
1000
#$AUX@_ToolInfo Properties
1070
           8
1000
Insert^JLine^JSingle@Line Single
1002
}
  0
LINE
  5
7F
100
AcDbEntity
  8
0
370
           0
  6
Continuous
 62
           7
 48
0.300000011921
100
AcDbLine
 10
0.6484366936
 20
0.0859367832
 30
0.0
 11
0.6640616936
 21
0.0781242832
 31
0.0
1001
TCAD
1000
TCW_CUSTOM_DATA
1002
{
1000
#$AUX@_ToolInfo Properties
1070
           8
1000
Insert^JLine^JSingle@Line Single
1002
}
  0
LINE
  5
80
100
AcDbEntity
  8
0
370
           0
  6
Continuous
 62
           7
 48
0.300000011921
100
AcDbLine
 10
0.6640616936
 20
0.0781242832
 30
0.0
 11
0.6484366936
 21
0.0703117832
 31
0.0
1001
TCAD
1000
TCW_CUSTOM_DATA
1002
{
1000
#$AUX@_ToolInfo Properties
1070
           8
1000
Insert^JLine^JSingle@Line Single
1002
}
  0
LINE
  5
81
100
AcDbEntity
  8
0
370
           0
  6
Continuous
 62
           7
 48
0.300000011921
100
AcDbLine
 10
0.6484366936
 20
0.0703117832
 30
0.0
 11
0.6640616936
 21
0.0624992832
 31
0.0
1001
TCAD
1000
TCW_CUSTOM_DATA
1002
{
1000
#$AUX@_ToolInfo Properties
1070
           8
1000
Insert^JLine^JSingle@Line Single
1002
}
  0
LINE
  5
82
100
AcDbEntity
  8
0
370
           0
  6
Continuous
 62
           7
 48
0.300000011921
100
AcDbLine
 10
0.6640616936
 20
0.0624992832
 30
0.0
 11
0.6484366936
 21
0.0546867832
 31
0.0
1001
TCAD
1000
TCW_CUSTOM_DATA
1002
{
1000
#$AUX@_ToolInfo Properties
1070
           8
1000
Insert^JLine^JSingle@Line Single
1002
}
  0
LINE
  5
83
100
AcDbEntity
  8
0
370
           0
  6
Continuous
 62
           7
 48
0.300000011921
100
AcDbLine
 10
0.6484366936
 20
0.0546867832
 30
0.0
 11
0.6640616936
 21
0.0468742832
 31
0.0
1001
TCAD
1000
TCW_CUSTOM_DATA
1002
{
1000
#$AUX@_ToolInfo Properties
1070
           8
1000
Insert^JLine^JSingle@Line Single
1002
}
  0
LINE
  5
84
100
AcDbEntity
  8
0
370
           0
  6
Continuous
 62
           7
 48
0.300000011921
100
AcDbLine
 10
0.6640616936
 20
0.0468742832
 30
0.0
 11
0.6484366936
 21
0.0390617832
 31
0.0
1001
TCAD
1000
TCW_CUSTOM_DATA
1002
{
1000
#$AUX@_ToolInfo Properties
1070
           8
1000
Insert^JLine^JSingle@Line Single
1002
}
  0
LINE
  5
85
100
AcDbEntity
  8
0
370
           0
  6
Continuous
 62
           7
 48
0.300000011921
100
AcDbLine
 10
0.6484366936
 20
0.0390617832
 30
0.0
 11
0.6640616936
 21
0.0312492832
 31
0.0
1001
TCAD
1000
TCW_CUSTOM_DATA
1002
{
1000
#$AUX@_ToolInfo Properties
1070
           8
1000
Insert^JLine^JSingle@Line Single
1002
}
  0
LINE
  5
86
100
AcDbEntity
  8
0
370
           0
  6
Continuous
 62
           7
 48
0.300000011921
100
AcDbLine
 10
0.6640616936
 20
0.0312492832
 30
0.0
 11
0.6484366936
 21
0.0234367832
 31
0.0
1001
TCAD
1000
TCW_CUSTOM_DATA
1002
{
1000
#$AUX@_ToolInfo Properties
1070
           8
1000
Insert^JLine^JSingle@Line Single
1002
}
  0
LINE
  5
87
100
AcDbEntity
  8
0
370
           0
  6
Continuous
 62
           7
 48
0.300000011921
100
AcDbLine
 10
0.6484366936
 20
0.0234367832
 30
0.0
 11
0.6640616936
 21
0.0156242832
 31
0.0
1001
TCAD
1000
TCW_CUSTOM_DATA
1002
{
1000
#$AUX@_ToolInfo Properties
1070
           8
1000
Insert^JLine^JSingle@Line Single
1002
}
  0
LINE
  5
88
100
AcDbEntity
  8
0
370
           0
  6
Continuous
 62
           7
 48
0.300000011921
100
AcDbLine
 10
0.6640616936
 20
0.0156242832
 30
0.0
 11
0.6484366936
 21
0.0078117832
 31
0.0
1001
TCAD
1000
TCW_CUSTOM_DATA
1002
{
1000
#$AUX@_ToolInfo Properties
1070
           8
1000
Insert^JLine^JSingle@Line Single
1002
}
  0
LINE
  5
89
100
AcDbEntity
  8
0
370
           0
  6
Continuous
 62
           7
 48
0.300000011921
100
AcDbLine
 10
0.6484366936
 20
0.0078117832
 30
0.0
 11
0.6640616936
 21
-0.0000007168
 31
0.0
1001
TCAD
1000
TCW_CUSTOM_DATA
1002
{
1000
#$AUX@_ToolInfo Properties
1070
           8
1000
Insert^JLine^JSingle@Line Single
1002
}
  0
LINE
  5
8A
100
AcDbEntity
  8
0
370
           0
  6
Continuous
 62
           7
 48
0.300000011921
100
AcDbLine
 10
0.6640616936
 20
-0.0000007168
 30
0.0
 11
0.6484366936
 21
-0.0078132168
 31
0.0
1001
TCAD
1000
TCW_CUSTOM_DATA
1002
{
1000
#$AUX@_ToolInfo Properties
1070
           8
1000
Insert^JLine^JSingle@Line Single
1002
}
  0
LINE
  5
8B
100
AcDbEntity
  8
0
370
           0
  6
Continuous
 62
           7
 48
0.300000011921
100
AcDbLine
 10
0.6484366936
 20
-0.0078132168
 30
0.0
 11
0.6640616936
 21
-0.0156257168
 31
0.0
1001
TCAD
1000
TCW_CUSTOM_DATA
1002
{
1000
#$AUX@_ToolInfo Properties
1070
           8
1000
Insert^JLine^JSingle@Line Single
1002
}
  0
LINE
  5
8C
100
AcDbEntity
  8
0
370
           0
  6
Continuous
 62
           7
 48
0.300000011921
100
AcDbLine
 10
0.6640616936
 20
-0.0156257168
 30
0.0
 11
0.6484366936
 21
-0.0234382168
 31
0.0
1001
TCAD
1000
TCW_CUSTOM_DATA
1002
{
1000
#$AUX@_ToolInfo Properties
1070
           8
1000
Insert^JLine^JSingle@Line Single
1002
}
  0
LINE
  5
8D
100
AcDbEntity
  8
0
370
           0
  6
Continuous
 62
           7
 48
0.300000011921
100
AcDbLine
 10
0.6484366936
 20
-0.0234382168
 30
0.0
 11
0.6640616936
 21
-0.0312507168
 31
0.0
1001
TCAD
1000
TCW_CUSTOM_DATA
1002
{
1000
#$AUX@_ToolInfo Properties
1070
           8
1000
Insert^JLine^JSingle@Line Single
1002
}
  0
LINE
  5
8E
100
AcDbEntity
  8
0
370
           0
  6
Continuous
 62
           7
 48
0.300000011921
100
AcDbLine
 10
0.6640616936
 20
-0.0312507168
 30
0.0
 11
0.6484366936
 21
-0.0390632168
 31
0.0
1001
TCAD
1000
TCW_CUSTOM_DATA
1002
{
1000
#$AUX@_ToolInfo Properties
1070
           8
1000
Insert^JLine^JSingle@Line Single
1002
}
  0
LINE
  5
8F
100
AcDbEntity
  8
0
370
           0
  6
Continuous
 62
           7
 48
0.300000011921
100
AcDbLine
 10
0.6484366936
 20
-0.0390632168
 30
0.0
 11
0.6640616936
 21
-0.0468757168
 31
0.0
1001
TCAD
1000
TCW_CUSTOM_DATA
1002
{
1000
#$AUX@_ToolInfo Properties
1070
           8
1000
Insert^JLine^JSingle@Line Single
1002
}
  0
LINE
  5
90
100
AcDbEntity
  8
0
370
           0
  6
Continuous
 62
           7
 48
0.300000011921
100
AcDbLine
 10
0.6640616936
 20
-0.0468757168
 30
0.0
 11
0.6484366936
 21
-0.0546882168
 31
0.0
1001
TCAD
1000
TCW_CUSTOM_DATA
1002
{
1000
#$AUX@_ToolInfo Properties
1070
           8
1000
Insert^JLine^JSingle@Line Single
1002
}
  0
LINE
  5
91
100
AcDbEntity
  8
0
370
           0
  6
Continuous
 62
           7
 48
0.300000011921
100
AcDbLine
 10
0.6484366936
 20
-0.0546882168
 30
0.0
 11
0.6640616936
 21
-0.0625007168
 31
0.0
1001
TCAD
1000
TCW_CUSTOM_DATA
1002
{
1000
#$AUX@_ToolInfo Properties
1070
           8
1000
Insert^JLine^JSingle@Line Single
1002
}
  0
LINE
  5
92
100
AcDbEntity
  8
0
370
           0
  6
Continuous
 62
           7
 48
0.300000011921
100
AcDbLine
 10
0.6640616936
 20
-0.0625007168
 30
0.0
 11
0.6484366936
 21
-0.0703132168
 31
0.0
1001
TCAD
1000
TCW_CUSTOM_DATA
1002
{
1000
#$AUX@_ToolInfo Properties
1070
           8
1000
Insert^JLine^JSingle@Line Single
1002
}
  0
LINE
  5
93
100
AcDbEntity
  8
0
370
           0
  6
Continuous
 62
           7
 48
0.300000011921
100
AcDbLine
 10
0.6484366936
 20
-0.0703132168
 30
0.0
 11
0.6640616936
 21
-0.0781257168
 31
0.0
1001
TCAD
1000
TCW_CUSTOM_DATA
1002
{
1000
#$AUX@_ToolInfo Properties
1070
           8
1000
Insert^JLine^JSingle@Line Single
1002
}
  0
LINE
  5
94
100
AcDbEntity
  8
0
370
           0
  6
Continuous
 62
           7
 48
0.300000011921
100
AcDbLine
 10
0.6640616936
 20
-0.0781257168
 30
0.0
 11
0.6484366936
 21
-0.0859382168
 31
0.0
1001
TCAD
1000
TCW_CUSTOM_DATA
1002
{
1000
#$AUX@_ToolInfo Properties
1070
           8
1000
Insert^JLine^JSingle@Line Single
1002
}
  0
LINE
  5
95
100
AcDbEntity
  8
0
370
           0
  6
Continuous
 62
           7
 48
0.300000011921
100
AcDbLine
 10
0.6484366936
 20
-0.0859382168
 30
0.0
 11
0.6640616936
 21
-0.0937507168
 31
0.0
1001
TCAD
1000
TCW_CUSTOM_DATA
1002
{
1000
#$AUX@_ToolInfo Properties
1070
           8
1000
Insert^JLine^JSingle@Line Single
1002
}
  0
LINE
  5
96
100
AcDbEntity
  8
0
370
           0
  6
Continuous
 62
           7
 48
0.300000011921
100
AcDbLine
 10
0.6640616936
 20
-0.0937507168
 30
0.0
 11
0.6484366936
 21
-0.1015632168
 31
0.0
1001
TCAD
1000
TCW_CUSTOM_DATA
1002
{
1000
#$AUX@_ToolInfo Properties
1070
           8
1000
Insert^JLine^JSingle@Line Single
1002
}
  0
LINE
  5
97
100
AcDbEntity
  8
0
370
           0
  6
Continuous
 62
           7
 48
0.300000011921
100
AcDbLine
 10
0.6484366936
 20
-0.1015632168
 30
0.0
 11
0.6640616936
 21
-0.1093757168
 31
0.0
1001
TCAD
1000
TCW_CUSTOM_DATA
1002
{
1000
#$AUX@_ToolInfo Properties
1070
           8
1000
Insert^JLine^JSingle@Line Single
1002
}
  0
LINE
  5
98
100
AcDbEntity
  8
0
370
           0
  6
Continuous
 62
           7
 48
0.300000011921
100
AcDbLine
 10
0.6640616936
 20
-0.1093757168
 30
0.0
 11
0.6484366936
 21
-0.1171882168
 31
0.0
1001
TCAD
1000
TCW_CUSTOM_DATA
1002
{
1000
#$AUX@_ToolInfo Properties
1070
           8
1000
Insert^JLine^JSingle@Line Single
1002
}
  0
LINE
  5
99
100
AcDbEntity
  8
0
370
           0
  6
Continuous
 62
           7
 48
0.300000011921
100
AcDbLine
 10
0.6484366936
 20
-0.1171882168
 30
0.0
 11
0.6640616936
 21
-0.1250007168
 31
0.0
1001
TCAD
1000
TCW_CUSTOM_DATA
1002
{
1000
#$AUX@_ToolInfo Properties
1070
           8
1000
Insert^JLine^JSingle@Line Single
1002
}
  0
LINE
  5
9A
100
AcDbEntity
  8
0
370
           0
  6
Continuous
 62
           7
 48
0.300000011921
100
AcDbLine
 10
0.6640616936
 20
-0.1250007168
 30
0.0
 11
0.6484366936
 21
-0.1328132168
 31
0.0
1001
TCAD
1000
TCW_CUSTOM_DATA
1002
{
1000
#$AUX@_ToolInfo Properties
1070
           8
1000
Insert^JLine^JSingle@Line Single
1002
}
  0
LINE
  5
9B
100
AcDbEntity
  8
0
370
           0
  6
Continuous
 62
           7
 48
0.300000011921
100
AcDbLine
 10
0.6484366936
 20
-0.1328132168
 30
0.0
 11
0.6640616936
 21
-0.1406257168
 31
0.0
1001
TCAD
1000
TCW_CUSTOM_DATA
1002
{
1000
#$AUX@_ToolInfo Properties
1070
           8
1000
Insert^JLine^JSingle@Line Single
1002
}
  0
LINE
  5
9C
100
AcDbEntity
  8
0
370
           0
  6
Continuous
 62
           7
 48
0.300000011921
100
AcDbLine
 10
0.6640616936
 20
-0.1406257168
 30
0.0
 11
0.6484366936
 21
-0.1484382168
 31
0.0
1001
TCAD
1000
TCW_CUSTOM_DATA
1002
{
1000
#$AUX@_ToolInfo Properties
1070
           8
1000
Insert^JLine^JSingle@Line Single
1002
}
  0
LINE
  5
9D
100
AcDbEntity
  8
0
370
           0
  6
Continuous
 62
           7
 48
0.300000011921
100
AcDbLine
 10
0.6484366936
 20
-0.1484382168
 30
0.0
 11
0.6640616936
 21
-0.1562507168
 31
0.0
1001
TCAD
1000
TCW_CUSTOM_DATA
1002
{
1000
#$AUX@_ToolInfo Properties
1070
           8
1000
Insert^JLine^JSingle@Line Single
1002
}
  0
LINE
  5
9E
100
AcDbEntity
  8
0
370
           0
  6
Continuous
 62
           7
 48
0.300000011921
100
AcDbLine
 10
0.6640616936
 20
-0.1562507168
 30
0.0
 11
0.6484366936
 21
-0.1640632168
 31
0.0
1001
TCAD
1000
TCW_CUSTOM_DATA
1002
{
1000
#$AUX@_ToolInfo Properties
1070
           8
1000
Insert^JLine^JSingle@Line Single
1002
}
  0
LINE
  5
9F
100
AcDbEntity
  8
0
370
           0
  6
Continuous
 62
           7
 48
0.300000011921
100
AcDbLine
 10
0.6484366936
 20
-0.1640632168
 30
0.0
 11
0.6640616936
 21
-0.1718757168
 31
0.0
1001
TCAD
1000
TCW_CUSTOM_DATA
1002
{
1000
#$AUX@_ToolInfo Properties
1070
           8
1000
Insert^JLine^JSingle@Line Single
1002
}
  0
LINE
  5
A0
100
AcDbEntity
  8
0
370
           0
  6
Continuous
 62
           7
 48
0.300000011921
100
AcDbLine
 10
0.6640616936
 20
-0.1718757168
 30
0.0
 11
0.6484366936
 21
-0.1796882168
 31
0.0
1001
TCAD
1000
TCW_CUSTOM_DATA
1002
{
1000
#$AUX@_ToolInfo Properties
1070
           8
1000
Insert^JLine^JSingle@Line Single
1002
}
  0
LINE
  5
A1
100
AcDbEntity
  8
0
370
           0
  6
Continuous
 62
           7
 48
0.300000011921
100
AcDbLine
 10
0.6484366936
 20
-0.1796882168
 30
0.0
 11
0.6640616936
 21
-0.1875007168
 31
0.0
1001
TCAD
1000
TCW_CUSTOM_DATA
1002
{
1000
#$AUX@_ToolInfo Properties
1070
           8
1000
Insert^JLine^JSingle@Line Single
1002
}
  0
LINE
  5
A2
100
AcDbEntity
  8
0
370
           0
  6
Continuous
 62
           7
 48
0.300000011921
100
AcDbLine
 10
0.6640616936
 20
-0.1875007168
 30
0.0
 11
0.6484366936
 21
-0.1953132168
 31
0.0
1001
TCAD
1000
TCW_CUSTOM_DATA
1002
{
1000
#$AUX@_ToolInfo Properties
1070
           8
1000
Insert^JLine^JSingle@Line Single
1002
}
  0
LINE
  5
A3
100
AcDbEntity
  8
0
370
           0
  6
Continuous
 62
           7
 48
0.300000011921
100
AcDbLine
 10
0.6484366936
 20
-0.1953132168
 30
0.0
 11
0.6640616936
 21
-0.2031257168
 31
0.0
1001
TCAD
1000
TCW_CUSTOM_DATA
1002
{
1000
#$AUX@_ToolInfo Properties
1070
           8
1000
Insert^JLine^JSingle@Line Single
1002
}
  0
LINE
  5
A4
100
AcDbEntity
  8
0
370
           0
  6
Continuous
 62
           7
 48
0.300000011921
100
AcDbLine
 10
0.6640616936
 20
-0.2031257168
 30
0.0
 11
0.6484366936
 21
-0.2109382168
 31
0.0
1001
TCAD
1000
TCW_CUSTOM_DATA
1002
{
1000
#$AUX@_ToolInfo Properties
1070
           8
1000
Insert^JLine^JSingle@Line Single
1002
}
  0
LINE
  5
A5
100
AcDbEntity
  8
0
370
           0
  6
Continuous
 62
           7
 48
0.300000011921
100
AcDbLine
 10
0.6484366936
 20
-0.2109382168
 30
0.0
 11
0.6640616936
 21
-0.2187507168
 31
0.0
1001
TCAD
1000
TCW_CUSTOM_DATA
1002
{
1000
#$AUX@_ToolInfo Properties
1070
           8
1000
Insert^JLine^JSingle@Line Single
1002
}
  0
LINE
  5
A6
100
AcDbEntity
  8
0
370
           0
  6
Continuous
 62
           7
 48
0.300000011921
100
AcDbLine
 10
0.6640616936
 20
-0.2187507168
 30
0.0
 11
0.6484366936
 21
-0.2265632168
 31
0.0
1001
TCAD
1000
TCW_CUSTOM_DATA
1002
{
1000
#$AUX@_ToolInfo Properties
1070
           8
1000
Insert^JLine^JSingle@Line Single
1002
}
  0
LINE
  5
A7
100
AcDbEntity
  8
0
370
           0
  6
Continuous
 62
           7
 48
0.300000011921
100
AcDbLine
 10
0.6484366936
 20
-0.2265632168
 30
0.0
 11
0.6640616936
 21
-0.2343757168
 31
0.0
1001
TCAD
1000
TCW_CUSTOM_DATA
1002
{
1000
#$AUX@_ToolInfo Properties
1070
           8
1000
Insert^JLine^JSingle@Line Single
1002
}
  0
LINE
  5
A8
100
AcDbEntity
  8
0
370
           0
  6
Continuous
 62
           7
 48
0.300000011921
100
AcDbLine
 10
0.6640616936
 20
-0.2343757168
 30
0.0
 11
0.6484366936
 21
-0.2421882168
 31
0.0
1001
TCAD
1000
TCW_CUSTOM_DATA
1002
{
1000
#$AUX@_ToolInfo Properties
1070
           8
1000
Insert^JLine^JSingle@Line Single
1002
}
  0
LINE
  5
A9
100
AcDbEntity
  8
0
370
           0
  6
Continuous
 62
           7
 48
0.300000011921
100
AcDbLine
 10
0.6484366936
 20
-0.2421882168
 30
0.0
 11
0.6640616936
 21
-0.2500007168
 31
0.0
1001
TCAD
1000
TCW_CUSTOM_DATA
1002
{
1000
#$AUX@_ToolInfo Properties
1070
           8
1000
Insert^JLine^JSingle@Line Single
1002
}
  0
LINE
  5
AA
100
AcDbEntity
  8
0
370
           0
  6
Continuous
 62
           7
 48
0.300000011921
100
AcDbLine
 10
0.6640616936
 20
-0.2500007168
 30
0.0
 11
0.6484366936
 21
-0.2578132168
 31
0.0
1001
TCAD
1000
TCW_CUSTOM_DATA
1002
{
1000
#$AUX@_ToolInfo Properties
1070
           8
1000
Insert^JLine^JSingle@Line Single
1002
}
  0
LINE
  5
AB
100
AcDbEntity
  8
0
370
           0
  6
Continuous
 62
           7
 48
0.300000011921
100
AcDbLine
 10
0.6484366936
 20
-0.2578132168
 30
0.0
 11
0.6640616936
 21
-0.2656257168
 31
0.0
1001
TCAD
1000
TCW_CUSTOM_DATA
1002
{
1000
#$AUX@_ToolInfo Properties
1070
           8
1000
Insert^JLine^JSingle@Line Single
1002
}
  0
LINE
  5
AC
100
AcDbEntity
  8
0
370
           0
  6
Continuous
 62
           7
 48
0.300000011921
100
AcDbLine
 10
0.6640616936
 20
-0.2656257168
 30
0.0
 11
0.6484366936
 21
-0.2734382168
 31
0.0
1001
TCAD
1000
TCW_CUSTOM_DATA
1002
{
1000
#$AUX@_ToolInfo Properties
1070
           8
1000
Insert^JLine^JSingle@Line Single
1002
}
  0
LINE
  5
AD
100
AcDbEntity
  8
0
370
           0
  6
Continuous
 62
           7
 48
0.300000011921
100
AcDbLine
 10
0.6484366936
 20
-0.2734382168
 30
0.0
 11
0.6640616936
 21
-0.2812507168
 31
0.0
1001
TCAD
1000
TCW_CUSTOM_DATA
1002
{
1000
#$AUX@_ToolInfo Properties
1070
           8
1000
Insert^JLine^JSingle@Line Single
1002
}
  0
LINE
  5
AE
100
AcDbEntity
  8
0
370
           0
  6
Continuous
 62
           7
 48
0.300000011921
100
AcDbLine
 10
0.6640616936
 20
-0.2812507168
 30
0.0
 11
0.6484366936
 21
-0.2890632168
 31
0.0
1001
TCAD
1000
TCW_CUSTOM_DATA
1002
{
1000
#$AUX@_ToolInfo Properties
1070
           8
1000
Insert^JLine^JSingle@Line Single
1002
}
  0
LINE
  5
AF
100
AcDbEntity
  8
0
370
           0
  6
Continuous
 62
           7
 48
0.300000011921
100
AcDbLine
 10
0.6640616936
 20
-0.2812507168
 30
0.0
 11
0.6640616936
 21
-0.2812507168
 31
0.0
  0
LINE
  5
B0
100
AcDbEntity
  8
0
370
           0
  6
Continuous
 62
           7
 48
0.300000011921
100
AcDbLine
 10
0.4765616936
 20
0.1015617832
 30
0.0
 11
0.4921866936
 21
0.1093742832
 31
0.0
1001
TCAD
1000
TCW_CUSTOM_DATA
1002
{
1000
#$AUX@_ToolInfo Properties
1070
           8
1000
Insert^JLine^JSingle@Line Single
1002
}
  0
LINE
  5
B1
100
AcDbEntity
  8
0
370
           0
  6
Continuous
 62
           7
 48
0.300000011921
100
AcDbLine
 10
0.4921866936
 20
0.1093742832
 30
0.0
 11
0.4765616936
 21
0.1171867832
 31
0.0
1001
TCAD
1000
TCW_REFPOINT
1002
{
1010
0.4843741936
1020
0.1132805332
1030
0.0
1002
}
1000
TCW_CUSTOM_DATA
1002
{
1000
#$AUX@_ToolInfo Properties
1070
           8
1000
Insert^JLine^JSingle@Line Single
1002
}
  0
LINE
  5
B2
100
AcDbEntity
  8
0
370
           0
  6
Continuous
 62
           7
 48
0.300000011921
100
AcDbLine
 10
0.6640616936
 20
0.0937492832
 30
0.0
 11
0.6484366936
 21
0.1015617832
 31
0.0
1001
TCAD
1000
TCW_CUSTOM_DATA
1002
{
1000
#$AUX@_ToolInfo Properties
1070
           8
1000
Insert^JLine^JSingle@Line Single
1002
}
  0
LINE
  5
B3
100
AcDbEntity
  8
0
370
           0
  6
Continuous
 62
           7
 48
0.300000011921
100
AcDbLine
 10
0.6484366936
 20
0.1015617832
 30
0.0
 11
0.6640616936
 21
0.1093742832
 31
0.0
1001
TCAD
1000
TCW_CUSTOM_DATA
1002
{
1000
#$AUX@_ToolInfo Properties
1070
           8
1000
Insert^JLine^JSingle@Line Single
1002
}
  0
LINE
  5
B4
100
AcDbEntity
  8
0
370
           0
  6
Continuous
 62
           7
 48
0.300000011921
100
AcDbLine
 10
0.6640616936
 20
0.0937492832
 30
0.0
 11
0.6640616936
 21
0.0937492832
 31
0.0
  0
LINE
  5
B5
100
AcDbEntity
  8
0
370
           0
  6
Continuous
 62
           7
 48
0.300000011921
100
AcDbLine
 10
0.5390616936
 20
0.0624992832
 30
0.0
 11
0.5390616936
 21
-0.2890632168
 31
0.0
1001
TCAD
1000
TCW_CUSTOM_DATA
1002
{
1000
#$AUX@_ToolInfo Properties
1070
           8
1000
Modify^JMeet2Lines@Meet2Lines
1002
}
  0
LINE
  5
B6
100
AcDbEntity
  8
0
370
           0
  6
Continuous
 62
           7
 48
0.300000011921
100
AcDbLine
 10
0.6015616936
 20
0.0624992832
 30
0.0
 11
0.6015616936
 21
-0.2890632168
 31
0.0
1001
TCAD
1000
TCW_CUSTOM_DATA
1002
{
1000
#$AUX@_ToolInfo Properties
1070
           8
1000
Modify^JMeet2Lines@Meet2Lines
1002
}
  0
LINE
  5
B7
100
AcDbEntity
  8
0
370
           0
  6
Continuous
 62
           7
 48
0.300000011921
100
AcDbLine
 10
0.4765616936
 20
-0.2890632168
 30
0.0
 11
0.5390616936
 21
-0.2890632168
 31
0.0
  0
LINE
  5
B8
100
AcDbEntity
  8
0
370
           0
  6
Continuous
 62
           7
 48
0.300000011921
100
AcDbLine
 10
0.6015616936
 20
-0.2890632168
 30
0.0
 11
0.6484366936
 21
-0.2890632168
 31
0.0
  0
LINE
  5
B9
100
AcDbEntity
  8
0
370
           0
  6
Continuous
 62
           7
 48
0.300000011921
100
AcDbLine
 10
0.6640616936
 20
0.1093742832
 30
0.0
 11
0.6640616936
 21
0.1171867832
 31
0.0
1001
TCAD
1000
TCW_REFPOINT
1002
{
1010
0.6640616936
1020
0.1132805332
1030
0.0
1002
}
  0
LINE
  5
BA
100
AcDbEntity
  8
0
370
           0
  6
Continuous
 62
           7
 48
0.300000011921
100
AcDbLine
 10
0.3828116936
 20
0.8359367832
 30
0.0
 11
0.3828116936
 21
0.8984367832
 31
0.0
1001
TCAD
1000
TCW_CUSTOM_DATA
1002
{
1000
#$AUX@_ToolInfo Properties
1070
           8
1000
Insert^JLine^JSingle@Line Single
1002
}
  0
LINE
  5
BB
100
AcDbEntity
  8
0
370
           0
  6
Continuous
 62
           7
 48
0.300000011921
100
AcDbLine
 10
0.4453116936
 20
0.8359367832
 30
0.0
 11
0.4453116936
 21
0.8984367832
 31
0.0
1001
TCAD
1000
TCW_REFPOINT
1002
{
1010
0.4453116936
1020
0.8671867832
1030
0.0
1002
}
1000
TCW_CUSTOM_DATA
1002
{
1000
#$AUX@_ToolInfo Properties
1070
           8
1000
Insert^JLine^JSingle@Line Single
1002
}
  0
LINE
  5
BC
100
AcDbEntity
  8
0
370
           0
  6
Continuous
 62
           7
 48
0.300000011921
100
AcDbLine
 10
0.3203116936
 20
0.0859367832
 30
0.0
 11
0.3828116936
 21
0.0859367832
 31
0.0
1001
TCAD
1000
TCW_CUSTOM_DATA
1002
{
1000
#$AUX@_ToolInfo Properties
1070
           8
1000
Insert^JLine^JSingle@Line Single
1002
}
  0
LINE
  5
BD
100
AcDbEntity
  8
0
370
           0
  6
Continuous
 62
           7
 48
0.300000011921
100
AcDbLine
 10
0.3203116936
 20
0.8359367832
 30
0.0
 11
0.3828116936
 21
0.8359367832
 31
0.0
1001
TCAD
1000
TCW_CUSTOM_DATA
1002
{
1000
#$AUX@_ToolInfo Properties
1070
           8
1000
Insert^JLine^JSingle@Line Single
1002
}
  0
LINE
  5
BE
100
AcDbEntity
  8
0
370
           0
  6
Continuous
 62
           7
 48
0.300000011921
100
AcDbLine
 10
0.3828116936
 20
0.0859367832
 30
0.0
 11
0.3203116936
 21
0.0859367832
 31
0.0
1001
TCAD
1000
TCW_CUSTOM_DATA
1002
{
1000
#$AUX@_ToolInfo Properties
1070
           8
1000
Insert^JLine^JSingle@Line Single
1002
}
  0
LWPOLYLINE
  5
C0
102
{ACAD_REACTORS
330
BF
102
}
100
AcDbEntity
  8
0
370
           0
  6
Continuous
 62
           7
100
AcDbPolyline
 90
        5
 70
           0
 10
0.3203116936
 20
0.0859367832
 10
0.3828116936
 20
0.0859367832
 10
0.3828116936
 20
0.8359367832
 10
0.3203116936
 20
0.8359367832
 10
0.3203116936
 20
0.0859367832
  0
HATCH
  5
BF
100
AcDbEntity
  8
0
  6
Continuous
 62
           7
100
AcDbHatch
 10
0.0
 20
0.0
 30
0.0
210
0.0
220
0.0
230
1.0
  2
_U
 70
           0
 71
           1
 91
        1
 92
        3
 72
           0
 73
           1
 93
        4
 10
0.3203116935999999
 20
0.0859367832
 10
0.3828116935999999
 20
0.0859367832
 10
0.3828116935999999
 20
0.8359367832
 10
0.3203116935999999
 20
0.8359367832
 97
        1
330
C0
 75
           0
 76
           0
 52
45.0
 41
0.025000000373
 77
           0
 78
           1
 53
45.0
 43
0.0
 44
0.0
 45
-0.0176776697930815
 46
0.0176776697930815
 79
           0
 98
        0
  0
LWPOLYLINE
  5
C2
102
{ACAD_REACTORS
330
C1
102
}
100
AcDbEntity
  8
0
370
           0
  6
Continuous
 62
           7
100
AcDbPolyline
 90
        5
 70
           0
 10
0.7578116936
 20
0.0859367832
 10
0.8203116936
 20
0.0859367832
 10
0.8203116936
 20
0.8359367832
 10
0.7578116936
 20
0.8359367832
 10
0.7578116936
 20
0.0859367832
  0
HATCH
  5
C1
100
AcDbEntity
  8
0
  6
Continuous
 62
           7
100
AcDbHatch
 10
0.0
 20
0.0
 30
0.0
210
0.0
220
0.0
230
1.0
  2
_U
 70
           0
 71
           1
 91
        1
 92
        3
 72
           0
 73
           1
 93
        4
 10
0.7578116935999999
 20
0.0859367832
 10
0.8203116935999999
 20
0.0859367832
 10
0.8203116935999999
 20
0.8359367832
 10
0.7578116935999999
 20
0.8359367832
 97
        1
330
C2
 75
           0
 76
           0
 52
45.0
 41
0.025000000373
 77
           0
 78
           1
 53
45.0
 43
0.0
 44
0.0
 45
-0.0176776697930815
 46
0.0176776697930815
 79
           0
 98
        0
  0
LWPOLYLINE
  5
C4
102
{ACAD_REACTORS
330
C3
102
}
100
AcDbEntity
  8
0
370
           0
  6
Continuous
 62
           7
100
AcDbPolyline
 90
        7
 70
           0
 10
0.2578116936
 20
0.8984367832
 10
0.3828116936
 20
0.8984367832
 10
0.3828116936
 20
0.8359367832
 10
0.3203116936
 20
0.8359367832
 10
0.3203116936
 20
0.7734367832
 10
0.2578116936
 20
0.7734367832
 10
0.2578116936
 20
0.8984367832
  0
HATCH
  5
C3
100
AcDbEntity
  8
0
  6
Continuous
 62
           2
100
AcDbHatch
 10
0.0
 20
0.0
 30
0.0
210
0.0
220
0.0
230
1.0
  2
SOLID
 70
           1
 71
           1
 91
        1
 92
        3
 72
           0
 73
           1
 93
        6
 10
0.2578116935999999
 20
0.8984367832
 10
0.3828116935999999
 20
0.8984367832
 10
0.3828116935999999
 20
0.8359367832
 10
0.3203116935999999
 20
0.8359367832
 10
0.3203116935999999
 20
0.7734367832
 10
0.2578116935999999
 20
0.7734367832
 97
        1
330
C4
 75
           0
 76
           0
 98
        0
  0
LWPOLYLINE
  5
C6
102
{ACAD_REACTORS
330
C5
102
}
100
AcDbEntity
  8
0
370
           0
  6
Continuous
 62
           7
100
AcDbPolyline
 90
       14
 70
           0
 10
0.8203116936
 20
0.1484367832
 10
0.8828116936
 20
0.1484367832
 10
0.8828116936
 20
0.0234367832
 10
0.6484366936
 20
0.0234367832
 10
0.6640616936
 20
0.0312492832
 10
0.6484366936
 20
0.0390617832
 10
0.6640616936
 20
0.0468742832
 10
0.6484366936
 20
0.0546867832
 10
0.6640616936
 20
0.0624992832
 10
0.6484366936
 20
0.0703117832
 10
0.6640616936
 20
0.0781242832
 10
0.6484366936
 20
0.0859367832
 10
0.8203116936
 20
0.0859367832
 10
0.8203116936
 20
0.1484367832
  0
HATCH
  5
C5
100
AcDbEntity
  8
0
  6
Continuous
 62
           2
100
AcDbHatch
 10
0.0
 20
0.0
 30
0.0
210
0.0
220
0.0
230
1.0
  2
SOLID
 70
           1
 71
           1
 91
        1
 92
        3
 72
           0
 73
           1
 93
       13
 10
0.8203116935999999
 20
0.1484367832
 10
0.8828116935999999
 20
0.1484367832
 10
0.8828116935999999
 20
0.0234367832
 10
0.6484366935999999
 20
0.0234367832
 10
0.6640616935999999
 20
0.0312492832
 10
0.6484366935999999
 20
0.0390617832
 10
0.6640616935999999
 20
0.0468742832
 10
0.6484366935999999
 20
0.0546867832
 10
0.6640616935999999
 20
0.0624992832
 10
0.6484366935999999
 20
0.0703117832
 10
0.6640616935999999
 20
0.0781242832
 10
0.6484366935999999
 20
0.0859367832
 10
0.8203116935999999
 20
0.0859367832000001
 97
        1
330
C6
 75
           0
 76
           0
 98
        0
  0
LWPOLYLINE
  5
C8
102
{ACAD_REACTORS
330
C7
102
}
100
AcDbEntity
  8
0
370
           0
  6
Continuous
 62
           7
100
AcDbPolyline
 90
       14
 70
           0
 10
0.3203116936
 20
0.1484367832
 10
0.3203116936
 20
0.0859367832
 10
0.4765616936
 20
0.0859367832
 10
0.4921866936
 20
0.0781242832
 10
0.4765616936
 20
0.0703117832
 10
0.4921866936
 20
0.0624992832
 10
0.4765616936
 20
0.0546867832
 10
0.4921866936
 20
0.0468742832
 10
0.4765616936
 20
0.0390617832
 10
0.4921866936
 20
0.0312492832
 10
0.4765616936
 20
0.0234367832
 10
0.2578116936
 20
0.0234367832
 10
0.2578116936
 20
0.1484367832
 10
0.3203116936
 20
0.1484367832
  0
HATCH
  5
C7
100
AcDbEntity
  8
0
  6
Continuous
 62
           2
100
AcDbHatch
 10
0.0
 20
0.0
 30
0.0
210
0.0
220
0.0
230
1.0
  2
SOLID
 70
           1
 71
           1
 91
        1
 92
        3
 72
           0
 73
           1
 93
       13
 10
0.3203116935999999
 20
0.1484367832
 10
0.3203116936
 20
0.0859367832
 10
0.4765616936
 20
0.0859367831999999
 10
0.4921866935999999
 20
0.0781242832
 10
0.4765616935999999
 20
0.0703117832
 10
0.4921866935999999
 20
0.0624992832
 10
0.4765616935999999
 20
0.0546867832
 10
0.4921866935999999
 20
0.0468742832
 10
0.4765616935999999
 20
0.0390617832
 10
0.4921866935999999
 20
0.0312492832
 10
0.4765616936
 20
0.0234367831999999
 10
0.2578116935999999
 20
0.0234367832
 10
0.2578116935999999
 20
0.1484367832
 97
        1
330
C8
 75
           0
 76
           0
 98
        0
  0
LWPOLYLINE
  5
CA
102
{ACAD_REACTORS
330
C9
102
}
100
AcDbEntity
  8
0
370
           0
  6
Continuous
 62
           7
100
AcDbPolyline
 90
       24
 70
           0
 10
0.3828116936
 20
0.0234367832
 10
0.4765616936
 20
0.0234367832
 10
0.4921866936
 20
0.0156242832
 10
0.4765616936
 20
0.0078117832
 10
0.4921866936
 20
-0.0000007168
 10
0.4765616936
 20
-0.0078132168
 10
0.4921866936
 20
-0.0156257168
 10
0.4765616936
 20
-0.0234382168
 10
0.4921866936
 20
-0.0312507168
 10
0.4765616936
 20
-0.0390632168
 10
0.4921866936
 20
-0.0468757168
 10
0.4765616936
 20
-0.0546882168
 10
0.4921866936
 20
-0.0625007168
 10
0.4765616936
 20
-0.0703132168
 10
0.4921866936
 20
-0.0781257168
 10
0.4765616936
 20
-0.0859382168
 10
0.4921866936
 20
-0.0937507168
 10
0.4765616936
 20
-0.1015632168
 10
0.4921866936
 20
-0.1093757168
 10
0.4765616936
 20
-0.1171882168
 10
0.4921866936
 20
-0.1250007168
 10
0.4765616936
 20
-0.1328132168
 10
0.3828116936
 20
-0.1328132168
 10
0.3828116936
 20
0.0234367832
  0
HATCH
  5
C9
100
AcDbEntity
  8
0
  6
Continuous
 62
           2
100
AcDbHatch
 10
0.0
 20
0.0
 30
0.0
210
0.0
220
0.0
230
1.0
  2
SOLID
 70
           1
 71
           1
 91
        1
 92
        3
 72
           0
 73
           1
 93
       23
 10
0.3828116935999999
 20
0.0234367831999999
 10
0.4765616936
 20
0.0234367831999999
 10
0.4921866935999999
 20
0.0156242832
 10
0.4765616935999999
 20
0.0078117832
 10
0.4921866935999999
 20
-0.0000007168
 10
0.4765616935999999
 20
-0.0078132168
 10
0.4921866935999999
 20
-0.0156257168
 10
0.4765616935999999
 20
-0.0234382168
 10
0.4921866935999999
 20
-0.0312507168
 10
0.4765616935999999
 20
-0.0390632168
 10
0.4921866935999999
 20
-0.0468757168
 10
0.4765616935999999
 20
-0.0546882168
 10
0.4921866935999999
 20
-0.0625007168
 10
0.4765616935999999
 20
-0.0703132168
 10
0.4921866935999999
 20
-0.0781257168
 10
0.4765616935999999
 20
-0.0859382168
 10
0.4921866935999999
 20
-0.0937507168
 10
0.4765616935999999
 20
-0.1015632168
 10
0.4921866935999999
 20
-0.1093757168
 10
0.4765616935999999
 20
-0.1171882168
 10
0.4921866935999999
 20
-0.1250007168
 10
0.4765616935999999
 20
-0.1328132168
 10
0.3828116935999999
 20
-0.1328132168
 97
        1
330
CA
 75
           0
 76
           0
 98
        0
  0
LWPOLYLINE
  5
CC
102
{ACAD_REACTORS
330
CB
102
}
100
AcDbEntity
  8
0
370
           0
  6
Continuous
 62
           7
100
AcDbPolyline
 90
       24
 70
           0
 10
0.6484366936
 20
0.0234367832
 10
0.7578116936
 20
0.0234367832
 10
0.7578116936
 20
-0.1328132168
 10
0.6484366936
 20
-0.1328132168
 10
0.6640616936
 20
-0.1250007168
 10
0.6484366936
 20
-0.1171882168
 10
0.6640616936
 20
-0.1093757168
 10
0.6484366936
 20
-0.1015632168
 10
0.6640616936
 20
-0.0937507168
 10
0.6484366936
 20
-0.0859382168
 10
0.6640616936
 20
-0.0781257168
 10
0.6484366936
 20
-0.0703132168
 10
0.6640616936
 20
-0.0625007168
 10
0.6484366936
 20
-0.0546882168
 10
0.6640616936
 20
-0.0468757168
 10
0.6484366936
 20
-0.0390632168
 10
0.6640616936
 20
-0.0312507168
 10
0.6484366936
 20
-0.0234382168
 10
0.6640616936
 20
-0.0156257168
 10
0.6484366936
 20
-0.0078132168
 10
0.6640616936
 20
-0.0000007168
 10
0.6484366936
 20
0.0078117832
 10
0.6640616936
 20
0.0156242832
 10
0.6484366936
 20
0.0234367832
  0
HATCH
  5
CB
100
AcDbEntity
  8
0
  6
Continuous
 62
           2
100
AcDbHatch
 10
0.0
 20
0.0
 30
0.0
210
0.0
220
0.0
230
1.0
  2
SOLID
 70
           1
 71
           1
 91
        1
 92
        3
 72
           0
 73
           1
 93
       23
 10
0.6484366935999999
 20
0.0234367832
 10
0.7578116935999999
 20
0.0234367832
 10
0.7578116935999999
 20
-0.1328132168
 10
0.6484366935999999
 20
-0.1328132168
 10
0.6640616935999999
 20
-0.1250007168
 10
0.6484366935999999
 20
-0.1171882168
 10
0.6640616935999999
 20
-0.1093757168
 10
0.6484366935999999
 20
-0.1015632168
 10
0.6640616935999999
 20
-0.0937507168
 10
0.6484366935999999
 20
-0.0859382168
 10
0.6640616935999999
 20
-0.0781257168
 10
0.6484366935999999
 20
-0.0703132168
 10
0.6640616935999999
 20
-0.0625007168
 10
0.6484366935999999
 20
-0.0546882168
 10
0.6640616935999999
 20
-0.0468757168
 10
0.6484366935999999
 20
-0.0390632168
 10
0.6640616935999999
 20
-0.0312507168
 10
0.6484366935999999
 20
-0.0234382168
 10
0.6640616935999999
 20
-0.0156257168
 10
0.6484366935999999
 20
-0.0078132168
 10
0.6640616935999999
 20
-0.0000007168
 10
0.6484366935999999
 20
0.0078117832
 10
0.6640616935999999
 20
0.0156242832
 97
        1
330
CC
 75
           0
 76
           0
 98
        0
  0
SOLID
  5
CD
100
AcDbEntity
  8
0
  6
Continuous
 62
           7
100
AcDbTrace
 10
0.3828116936
 20
0.8984367832
 30
0.0
 11
0.4453116936
 21
0.8984367832
 31
0.0
 12
0.3828116936
 22
0.8359367832
 32
0.0
 13
0.4453116936
 23
0.8359367832
 33
0.0
1001
TCAD
1000
TCW_REFPOINT
1002
{
1010
0.4140616936
1020
0.8671867832
1030
0.0
1002
}
  0
LINE
  5
CE
100
AcDbEntity
  8
0
370
           0
  6
Continuous
 62
           7
 48
0.300000011921
100
AcDbLine
 10
0.4765616936
 20
0.1796867832
 30
0.0
 11
0.5234366936
 21
0.1796867832
 31
0.0
1001
TCAD
1000
TCW_REFPOINT
1002
{
1010
0.4999991936
1020
0.1796867832
1030
0.0
1002
}
  0
LINE
  5
CF
100
AcDbEntity
  8
0
370
           0
  6
Continuous
 62
           7
 48
0.300000011921
100
AcDbLine
 10
0.6171866936
 20
0.1796867832
 30
0.0
 11
0.6640616936
 21
0.1796867832
 31
0.0
1001
TCAD
1000
TCW_REFPOINT
1002
{
1010
0.6406241936
1020
0.1796867832
1030
0.0
1002
}
  0
LINE
  5
D0
100
AcDbEntity
  8
0
370
           0
  6
Continuous
 62
           7
 48
0.300000011921
100
AcDbLine
 10
0.4765616936
 20
0.1171867832
 30
0.0
 11
0.5234366936
 21
0.1171867832
 31
0.0
1001
TCAD
1000
TCW_REFPOINT
1002
{
1010
0.4999991936
1020
0.1171867832
1030
0.0
1002
}
  0
LINE
  5
D1
100
AcDbEntity
  8
0
370
           0
  6
Continuous
 62
           7
 48
0.300000011921
100
AcDbLine
 10
0.6171866936
 20
0.1171867832
 30
0.0
 11
0.6640616936
 21
0.1171867832
 31
0.0
1001
TCAD
1000
TCW_REFPOINT
1002
{
1010
0.6406241936
1020
0.1171867832
1030
0.0
1002
}
  0
ARC
  5
D2
100
AcDbEntity
  8
0
370
           0
  6
Continuous
 62
           7
 48
0.300000011921
100
AcDbCircle
 10
0.4015616936
 20
0.1484367832
 30
0.0
 40
0.08125
100
AcDbArc
 50
-22.61986494804
 51
22.61986494804
1001
TCAD
1000
TCW_CUSTOM_DATA
1002
{
1000
#$AUX@_ToolInfo Properties
1070
           8
1000
Insert^JCircle^JTriplePoint@Circle TriplePoint
1002
}
  0
ARC
  5
D3
100
AcDbEntity
  8
0
370
           0
  6
Continuous
 62
           7
 48
0.300000011921
100
AcDbCircle
 10
0.7390616936
 20
0.1484367832
 30
0.0
 40
0.08125
100
AcDbArc
 50
157.38013505196
 51
202.61986494804
1001
TCAD
1000
TCW_CUSTOM_DATA
1002
{
1000
#$AUX@_ToolInfo Properties
1070
           8
1000
Insert^JCircle^JTriplePoint@Circle TriplePoint
1002
}
  0
ARC
  5
D4
100
AcDbEntity
  8
0
370
           0
  6
Continuous
 62
           7
 48
0.300000011921
100
AcDbCircle
 10
0.456596415822
 20
0.1484367832
 30
0.0
 40
0.073784722222
100
AcDbArc
 50
-25.057615418303
 51
25.057615418303
1001
TCAD
1000
TCW_CUSTOM_DATA
1002
{
1000
#$AUX@_ToolInfo Properties
1070
           8
1000
Insert^JCircle^JTriplePoint@Circle TriplePoint
1002
}
  0
ARC
  5
D5
100
AcDbEntity
  8
0
370
           0
  6
Continuous
 62
           7
 48
0.300000011921
100
AcDbCircle
 10
0.684026971378
 20
0.1484367832
 30
0.0
 40
0.073784722222
100
AcDbArc
 50
154.942384581697
 51
205.057615418303
1001
TCAD
1000
TCW_CUSTOM_DATA
1002
{
1000
#$AUX@_ToolInfo Properties
1070
           8
1000
Insert^JCircle^JTriplePoint@Circle TriplePoint
1002
}
  0
LWPOLYLINE
  5
D7
102
{ACAD_REACTORS
330
D6
102
}
100
AcDbEntity
  8
0
370
           0
  6
Continuous
 62
           7
100
AcDbPolyline
 90
       63
 70
           0
 10
0.48278355383
 20
0.150574988219
 10
0.482699154013
 20
0.152711712164
 10
0.48255855261
 20
0.154845474989
 10
0.482361847012
 20
0.156974798698
 10
0.48210917347
 20
0.159098208369
 10
0.481800707004
 20
0.161214233177
 10
0.481436661281
 20
0.163321407412
 10
0.481017288464
 20
0.165418271497
 10
0.480542879041
 20
0.167503372993
 10
0.480013761622
 20
0.16957526761
 10
0.47943030271
 20
0.171632520207
 10
0.478792906452
 20
0.173673705783
 10
0.478102014353
 20
0.175697410469
 10
0.477358104974
 20
0.177702232502
 10
0.4765616936
 20
0.1796867832
 10
0.5234366936
 20
0.1796867832
 10
0.524319277879
 20
0.177724992231
 10
0.525144297459
 20
0.17573830617
 10
0.525911051071
 20
0.173728413707
 10
0.526618886971
 20
0.171697023259
 10
0.527267203496
 20
0.169645861515
 10
0.527855449574
 20
0.167576671972
 10
0.528383125193
 20
0.165491213448
 10
0.528849781828
 20
0.163391258591
 10
0.529255022818
 20
0.161278592372
 10
0.529598503707
 20
0.159155010565
 10
0.529879932535
 20
0.157022318222
 10
0.530099070086
 20
0.15488232814
 10
0.530255730093
 20
0.152736859321
 10
0.530349779393
 20
0.150587735419
 10
0.530381138044
 20
0.1484367832
 10
0.530349779393
 20
0.146285830981
 10
0.530255730093
 20
0.144136707079
 10
0.530099070086
 20
0.14199123826
 10
0.529879932535
 20
0.139851248178
 10
0.529598503707
 20
0.137718555835
 10
0.529255022818
 20
0.135594974028
 10
0.528849781828
 20
0.133482307809
 10
0.528383125193
 20
0.131382352952
 10
0.527855449574
 20
0.129296894428
 10
0.527267203496
 20
0.127227704885
 10
0.526618886971
 20
0.125176543141
 10
0.525911051071
 20
0.123145152693
 10
0.525144297459
 20
0.12113526023
 10
0.524319277879
 20
0.119148574169
 10
0.5234366936
 20
0.1171867832
 10
0.4765616936
 20
0.1171867832
 10
0.477358104974
 20
0.119171333898
 10
0.478102014353
 20
0.121176155931
 10
0.478792906452
 20
0.123199860617
 10
0.47943030271
 20
0.125241046193
 10
0.480013761622
 20
0.12729829879
 10
0.480542879041
 20
0.129370193407
 10
0.481017288464
 20
0.131455294903
 10
0.481436661281
 20
0.133552158988
 10
0.481800707004
 20
0.135659333223
 10
0.48210917347
 20
0.137775358031
 10
0.482361847012
 20
0.139898767702
 10
0.48255855261
 20
0.142028091411
 10
0.482699154013
 20
0.144161854236
 10
0.48278355383
 20
0.146298578181
 10
0.4828116936
 20
0.1484367832
 10
0.48278355383
 20
0.150574988219
  0
HATCH
  5
D6
100
AcDbEntity
  8
0
  6
Continuous
 62
           7
100
AcDbHatch
 10
0.0
 20
0.0
 30
0.0
210
0.0
220
0.0
230
1.0
  2
SOLID
 70
           1
 71
           1
 91
        1
 92
        3
 72
           0
 73
           1
 93
       62
 10
0.4827835538304717
 20
0.1505749882186326
 10
0.4826991540134955
 20
0.1527117121641391
 10
0.482558552610398
 20
0.1548454749892566
 10
0.482361847011729
 20
0.156974798697822
 10
0.4821091734698011
 20
0.1590982083685206
 10
0.4818007070043127
 20
0.1612142331765216
 10
0.4814366612811158
 20
0.1633214074122763
 10
0.4810172884642167
 20
0.1654182714967731
 10
0.4805428790411086
 20
0.1675033729925456
 10
0.4800137616215595
 20
0.1695752676097345
 10
0.4794303027099938
 20
0.1716325202065055
 10
0.4787929064516252
 20
0.173673705783131
 10
0.4781020143525165
 20
0.1756974104690464
 10
0.4773581049737617
 20
0.1777022325021972
 10
0.4765616935999999
 20
0.1796867832
 10
0.5234366935999999
 20
0.1796867832
 10
0.5243192778789211
 20
0.1777249922312778
 10
0.5251442974593125
 20
0.1757383061699361
 10
0.525911051071293
 20
0.1737284137069239
 10
0.5266188869712832
 20
0.1716970232587226
 10
0.5272672034959903
 20
0.1696458615151855
 10
0.5278554495738239
 20
0.1675766719718444
 10
0.5283831251933092
 20
0.1654912134479319
 10
0.5288497818280988
 20
0.1633912585913777
 10
0.5292550228182217
 20
0.1612785923720513
 10
0.5295985037072458
 20
0.1591550105645304
 10
0.5298799325350676
 20
0.1570223182216855
 10
0.5300990700860789
 20
0.1548823281403778
 10
0.5302557300925014
 20
0.1527368593205749
 10
0.5303497793927146
 20
0.1505877354191937
 10
0.5303811380444443
 20
0.1484367832000152
 10
0.5303497793927146
 20
0.1462858309808062
 10
0.5302557300925014
 20
0.144136707079425
 10
0.5300990700860789
 20
0.1419912382596221
 10
0.5298799325350676
 20
0.1398512481783144
 10
0.5295985037072458
 20
0.1377185558354695
 10
0.5292550228182217
 20
0.1355949740279486
 10
0.5288497818280988
 20
0.1334823078086222
 10
0.5283831251933092
 20
0.1313823529520681
 10
0.5278554495738239
 20
0.1292968944281555
 10
0.5272672034959903
 20
0.1272277048848145
 10
0.5266188869712832
 20
0.1251765431412773
 10
0.525911051071293
 20
0.123145152693076
 10
0.5251442974593125
 20
0.1211352602300638
 10
0.5243192778789211
 20
0.1191485741687221
 10
0.5234366935999999
 20
0.1171867832
 10
0.4765616935999999
 20
0.1171867832
 10
0.4773581049737617
 20
0.1191713338978028
 10
0.4781020143525165
 20
0.1211761559309536
 10
0.4787929064516252
 20
0.123199860616869
 10
0.4794303027099939
 20
0.1252410461934945
 10
0.4800137616215595
 20
0.1272982987902655
 10
0.4805428790411086
 20
0.1293701934074544
 10
0.4810172884642167
 20
0.1314552949032269
 10
0.4814366612811158
 20
0.1335521589877237
 10
0.4818007070043127
 20
0.1356593332234785
 10
0.4821091734698011
 20
0.1377753580314794
 10
0.482361847011729
 20
0.139898767702178
 10
0.482558552610398
 20
0.1420280914107434
 10
0.4826991540134955
 20
0.1441618542358609
 10
0.4827835538304717
 20
0.1462985781813674
 10
0.4828116935999999
 20
0.1484367832000168
 97
        1
330
D7
 75
           0
 76
           0
 98
        0
  0
LWPOLYLINE
  5
D9
102
{ACAD_REACTORS
330
D8
102
}
100
AcDbEntity
  8
0
370
           0
  6
Continuous
 62
           7
100
AcDbPolyline
 90
       63
 70
           0
 10
0.610524317114
 20
0.15488232814
 10
0.610743454665
 20
0.157022318222
 10
0.611024883493
 20
0.159155010565
 10
0.611368364382
 20
0.161278592372
 10
0.611773605372
 20
0.163391258591
 10
0.612240262007
 20
0.165491213448
 10
0.612767937626
 20
0.167576671972
 10
0.613356183704
 20
0.169645861515
 10
0.614004500229
 20
0.171697023259
 10
0.614712336129
 20
0.173728413707
 10
0.615479089741
 20
0.17573830617
 10
0.616304109321
 20
0.177724992231
 10
0.6171866936
 20
0.1796867832
 10
0.6640616936
 20
0.1796867832
 10
0.663265282226
 20
0.177702232502
 10
0.662521372847
 20
0.175697410469
 10
0.661830480748
 20
0.173673705783
 10
0.66119308449
 20
0.171632520206
 10
0.660609625578
 20
0.16957526761
 10
0.660080508159
 20
0.167503372993
 10
0.659606098736
 20
0.165418271497
 10
0.659186725919
 20
0.163321407412
 10
0.658822680196
 20
0.161214233177
 10
0.65851421373
 20
0.159098208369
 10
0.658261540188
 20
0.156974798698
 10
0.65806483459
 20
0.154845474989
 10
0.657924233187
 20
0.152711712164
 10
0.65783983337
 20
0.150574988219
 10
0.6578116936
 20
0.1484367832
 10
0.65783983337
 20
0.146298578181
 10
0.657924233187
 20
0.144161854236
 10
0.65806483459
 20
0.142028091411
 10
0.658261540188
 20
0.139898767702
 10
0.65851421373
 20
0.137775358031
 10
0.658822680196
 20
0.135659333223
 10
0.659186725919
 20
0.133552158988
 10
0.659606098736
 20
0.131455294903
 10
0.660080508159
 20
0.129370193407
 10
0.660609625578
 20
0.12729829879
 10
0.66119308449
 20
0.125241046193
 10
0.661830480748
 20
0.123199860617
 10
0.662521372847
 20
0.121176155931
 10
0.663265282226
 20
0.119171333898
 10
0.6640616936
 20
0.1171867832
 10
0.6171866936
 20
0.1171867832
 10
0.616304109321
 20
0.119148574169
 10
0.615479089741
 20
0.12113526023
 10
0.614712336129
 20
0.123145152693
 10
0.614004500229
 20
0.125176543141
 10
0.613356183704
 20
0.127227704885
 10
0.612767937626
 20
0.129296894428
 10
0.612240262007
 20
0.131382352952
 10
0.611773605372
 20
0.133482307809
 10
0.611368364382
 20
0.135594974028
 10
0.611024883493
 20
0.137718555835
 10
0.610743454665
 20
0.139851248178
 10
0.610524317114
 20
0.14199123826
 10
0.610367657108
 20
0.144136707079
 10
0.610273607807
 20
0.146285830981
 10
0.610242249156
 20
0.1484367832
 10
0.610273607807
 20
0.150587735419
 10
0.610367657107
 20
0.152736859321
 10
0.610524317114
 20
0.15488232814
  0
HATCH
  5
D8
100
AcDbEntity
  8
0
  6
Continuous
 62
           7
100
AcDbHatch
 10
0.0
 20
0.0
 30
0.0
210
0.0
220
0.0
230
1.0
  2
SOLID
 70
           1
 71
           1
 91
        1
 92
        3
 72
           0
 73
           1
 93
       62
 10
0.6105243171139206
 20
0.1548823281403748
 10
0.6107434546649317
 20
0.1570223182216815
 10
0.6110248834927532
 20
0.1591550105645254
 10
0.6113683643817771
 20
0.1612785923720453
 10
0.6117736053718996
 20
0.1633912585913707
 10
0.6122402620066887
 20
0.165491213447924
 10
0.6127679376261735
 20
0.1675766719718355
 10
0.6133561837040066
 20
0.1696458615151757
 10
0.6140045002287131
 20
0.1716970232587119
 10
0.6147123361287027
 20
0.1737284137069124
 10
0.6154790897406824
 20
0.1757383061699238
 10
0.6163041093210732
 20
0.1777249922312647
 10
0.6171866935999999
 20
0.1796867832
 10
0.6640616935999999
 20
0.1796867832
 10
0.6632652822262325
 20
0.1777022325021826
 10
0.6625213728474784
 20
0.1756974104690327
 10
0.6618304807483705
 20
0.1736737057831183
 10
0.6611930844900025
 20
0.1716325202064937
 10
0.6606096255784374
 20
0.1695752676097237
 10
0.6600805081588889
 20
0.1675033729925358
 10
0.6596060987357812
 20
0.1654182714967644
 10
0.6591867259188825
 20
0.1633214074122686
 10
0.658822680195686
 20
0.161214233176515
 10
0.6585142137301979
 20
0.1590982083685151
 10
0.6582615401882703
 20
0.1569747986978176
 10
0.6580648345896015
 20
0.1548454749892533
 10
0.6579242331865042
 20
0.1527117121641369
 10
0.6578398333695281
 20
0.1505749882186315
 10
0.6578116935999999
 20
0.1484367831999832
 10
0.657839833369529
 20
0.146298578181335
 10
0.657924233186506
 20
0.1441618542358296
 10
0.6580648345896042
 20
0.1420280914107133
 10
0.6582615401882739
 20
0.139898767702149
 10
0.6585142137302024
 20
0.1377753580314517
 10
0.6588226801956914
 20
0.1356593332234519
 10
0.6591867259188887
 20
0.1335521589876984
 10
0.6596060987357882
 20
0.1314552949032029
 10
0.6600805081588967
 20
0.1293701934074316
 10
0.6606096255784462
 20
0.127298298790244
 10
0.661193084490012
 20
0.1252410461934742
 10
0.6618304807483809
 20
0.1231998606168499
 10
0.6625213728474897
 20
0.1211761559309357
 10
0.6632652822262446
 20
0.1191713338977861
 10
0.6640616935999999
 20
0.1171867832
 10
0.6171866935999999
 20
0.1171867832
 10
0.6163041093210853
 20
0.1191485741687072
 10
0.6154790897406938
 20
0.1211352602300477
 10
0.6147123361287131
 20
0.1231451526930588
 10
0.6140045002287227
 20
0.125176543141259
 10
0.6133561837040154
 20
0.127227704884795
 10
0.6127679376261814
 20
0.1292968944281349
 10
0.6122402620066958
 20
0.1313823529520463
 10
0.6117736053719058
 20
0.1334823078085993
 10
0.6113683643817824
 20
0.1355949740279246
 10
0.6110248834927576
 20
0.1377185558354443
 10
0.6107434546649353
 20
0.1398512481782882
 10
0.6105243171139233
 20
0.1419912382595948
 10
0.6103676571075002
 20
0.1441367070793966
 10
0.6102736078072861
 20
0.1462858309807767
 10
0.6102422491555555
 20
0.1484367831999847
 10
0.6102736078072852
 20
0.1505877354191927
 10
0.6103676571074984
 20
0.1527368593205729
 97
        1
330
D9
 75
           0
 76
           0
 98
        0
  0
LINE
  5
DA
100
AcDbEntity
  8
0
370
           0
  6
Continuous
 62
           7
 48
0.300000011921
100
AcDbLine
 10
0.5390616936
 20
-0.2890632168
 30
0.0
 11
0.6015616936
 21
-0.2890632168
 31
0.0
1001
TCAD
1000
TCW_CUSTOM_DATA
1002
{
1000
#$AUX@_ToolInfo Properties
1070
           8
1000
Insert^JLine^JSingle@Line Single
1002
}
  0
LINE
  5
DB
100
AcDbEntity
  8
0
370
           0
  6
Continuous
 62
           7
 48
0.300000011921
100
AcDbLine
 10
0.4765616936
 20
0.8203117832
 30
0.0
 11
0.4921866936
 21
0.8281242832
 31
0.0
1001
TCAD
1000
TCW_CUSTOM_DATA
1002
{
1000
#$AUX@_ToolInfo Properties
1070
           8
1000
Insert^JLine^JSingle@Line Single
1002
}
  0
LINE
  5
DC
100
AcDbEntity
  8
0
370
           0
  6
Continuous
 62
           7
 48
0.300000011921
100
AcDbLine
 10
0.4765616936
 20
0.8359367832
 30
0.0
 11
0.4921866936
 21
0.8281242832
 31
0.0
1001
TCAD
1000
TCW_CUSTOM_DATA
1002
{
1000
#$AUX@_ToolInfo Properties
1070
           8
1000
Insert^JLine^JSingle@Line Single
1002
}
  0
LINE
  5
DD
100
AcDbEntity
  8
0
370
           0
  6
Continuous
 62
           7
 48
0.300000011921
100
AcDbLine
 10
0.476738341787
 20
0.835848459107
 30
0.0
 11
0.4921866936
 21
0.8437492832
 31
0.0
1001
TCAD
1000
TCW_CUSTOM_DATA
1002
{
1000
#$AUX@_ToolInfo Properties
1070
           8
1000
Insert^JLine^JSingle@Line Single
1002
}
  0
LINE
  5
DE
100
AcDbEntity
  8
0
370
           0
  6
Continuous
 62
           7
 48
0.300000011921
100
AcDbLine
 10
0.4765616936
 20
0.8515617832
 30
0.0
 11
0.4921866936
 21
0.8437492832
 31
0.0
1001
TCAD
1000
TCW_CUSTOM_DATA
1002
{
1000
#$AUX@_ToolInfo Properties
1070
           8
1000
Insert^JLine^JSingle@Line Single
1002
}
  0
LINE
  5
DF
100
AcDbEntity
  8
0
370
           0
  6
Continuous
 62
           7
 48
0.300000011921
100
AcDbLine
 10
0.476723621105
 20
0.851480819448
 30
0.0
 11
0.4921866936
 21
0.8593742832
 31
0.0
1001
TCAD
1000
TCW_CUSTOM_DATA
1002
{
1000
#$AUX@_ToolInfo Properties
1070
           8
1000
Insert^JLine^JSingle@Line Single
1002
}
  0
LINE
  5
E0
100
AcDbEntity
  8
0
370
           0
  6
Continuous
 62
           7
 48
0.300000011921
100
AcDbLine
 10
0.4921866936
 20
0.8593742832
 30
0.0
 11
0.4921866936
 21
0.8593742832
 31
0.0
1001
TCAD
1000
TCW_CUSTOM_DATA
1002
{
1000
#$AUX@_ToolInfo Properties
1070
           8
1000
Insert^JLine^JSingle@Line Single
1002
}
  0
LINE
  5
E1
100
AcDbEntity
  8
0
370
           0
  6
Continuous
 62
           7
 48
0.300000011921
100
AcDbLine
 10
0.4765616936
 20
0.8671867832
 30
0.0
 11
0.4921866936
 21
0.8593742832
 31
0.0
1001
TCAD
1000
TCW_CUSTOM_DATA
1002
{
1000
#$AUX@_ToolInfo Properties
1070
           8
1000
Insert^JLine^JSingle@Line Single
1002
}
  0
LINE
  5
E2
100
AcDbEntity
  8
0
370
           0
  6
Continuous
 62
           7
 48
0.300000011921
100
AcDbLine
 10
0.4921866936
 20
0.8749992832
 30
0.0
 11
0.476708900422
 21
0.867113179789
 31
0.0
1001
TCAD
1000
TCW_CUSTOM_DATA
1002
{
1000
#$AUX@_ToolInfo Properties
1070
           8
1000
Insert^JLine^JSingle@Line Single
1002
}
  0
LINE
  5
E3
100
AcDbEntity
  8
0
370
           0
  6
Continuous
 62
           7
 48
0.300000011921
100
AcDbLine
 10
0.4765616936
 20
0.8828117832
 30
0.0
 11
0.4921866936
 21
0.8749992832
 31
0.0
1001
TCAD
1000
TCW_CUSTOM_DATA
1002
{
1000
#$AUX@_ToolInfo Properties
1070
           8
1000
Insert^JLine^JSingle@Line Single
1002
}
  0
LINE
  5
E4
100
AcDbEntity
  8
0
370
           0
  6
Continuous
 62
           7
 48
0.300000011921
100
AcDbLine
 10
0.4921866936
 20
0.8906242832
 30
0.0
 11
0.4765616936
 21
0.8828117832
 31
0.0
1001
TCAD
1000
TCW_CUSTOM_DATA
1002
{
1000
#$AUX@_ToolInfo Properties
1070
           8
1000
Insert^JLine^JSingle@Line Single
1002
}
  0
LINE
  5
E5
100
AcDbEntity
  8
0
370
           0
  6
Continuous
 62
           7
 48
0.300000011921
100
AcDbLine
 10
0.4765616936
 20
0.8984367832
 30
0.0
 11
0.4921866936
 21
0.8906242832
 31
0.0
1001
TCAD
1000
TCW_CUSTOM_DATA
1002
{
1000
#$AUX@_ToolInfo Properties
1070
           8
1000
Insert^JLine^JSingle@Line Single
1002
}
  0
LINE
  5
E6
100
AcDbEntity
  8
0
370
           0
  6
Continuous
 62
           7
 48
0.300000011921
100
AcDbLine
 10
0.4921866936
 20
0.9062492832
 30
0.0
 11
0.476679459058
 21
0.898377900471
 31
0.0
1001
TCAD
1000
TCW_CUSTOM_DATA
1002
{
1000
#$AUX@_ToolInfo Properties
1070
           8
1000
Insert^JLine^JSingle@Line Single
1002
}
  0
LINE
  5
E7
100
AcDbEntity
  8
0
370
           0
  6
Continuous
 62
           7
 48
0.300000011921
100
AcDbLine
 10
0.4765616936
 20
0.9140617832
 30
0.0
 11
0.4921866936
 21
0.9062492832
 31
0.0
1001
TCAD
1000
TCW_CUSTOM_DATA
1002
{
1000
#$AUX@_ToolInfo Properties
1070
           8
1000
Insert^JLine^JSingle@Line Single
1002
}
  0
LINE
  5
E8
100
AcDbEntity
  8
0
370
           0
  6
Continuous
 62
           7
 48
0.300000011921
100
AcDbLine
 10
0.4921866936
 20
0.9218742832
 30
0.0
 11
0.476664738376
 21
0.914010260812
 31
0.0
1001
TCAD
1000
TCW_CUSTOM_DATA
1002
{
1000
#$AUX@_ToolInfo Properties
1070
           8
1000
Insert^JLine^JSingle@Line Single
1002
}
  0
LINE
  5
E9
100
AcDbEntity
  8
0
370
           0
  6
Continuous
 62
           7
 48
0.300000011921
100
AcDbLine
 10
0.4765616936
 20
0.9296867832
 30
0.0
 11
0.4921866936
 21
0.9218742832
 31
0.0
1001
TCAD
1000
TCW_CUSTOM_DATA
1002
{
1000
#$AUX@_ToolInfo Properties
1070
           8
1000
Insert^JLine^JSingle@Line Single
1002
}
  0
LINE
  5
EA
100
AcDbEntity
  8
0
370
           0
  6
Continuous
 62
           7
 48
0.300000011921
100
AcDbLine
 10
0.4921866936
 20
0.9374992832
 30
0.0
 11
0.476650017693
 21
0.929642621153
 31
0.0
1001
TCAD
1000
TCW_CUSTOM_DATA
1002
{
1000
#$AUX@_ToolInfo Properties
1070
           8
1000
Insert^JLine^JSingle@Line Single
1002
}
  0
LINE
  5
EB
100
AcDbEntity
  8
0
370
           0
  6
Continuous
 62
           7
 48
0.300000011921
100
AcDbLine
 10
0.4765616936
 20
0.9453117832
 30
0.0
 11
0.4921866936
 21
0.9374992832
 31
0.0
1001
TCAD
1000
TCW_CUSTOM_DATA
1002
{
1000
#$AUX@_ToolInfo Properties
1070
           8
1000
Insert^JLine^JSingle@Line Single
1002
}
  0
LINE
  5
EC
100
AcDbEntity
  8
0
370
           0
  6
Continuous
 62
           7
 48
0.300000011921
100
AcDbLine
 10
0.4921866936
 20
0.9531242832
 30
0.0
 11
0.476635297011
 21
0.945274981494
 31
0.0
1001
TCAD
1000
TCW_CUSTOM_DATA
1002
{
1000
#$AUX@_ToolInfo Properties
1070
           8
1000
Insert^JLine^JSingle@Line Single
1002
}
  0
LINE
  5
ED
100
AcDbEntity
  8
0
370
           0
  6
Continuous
 62
           7
 48
0.300000011921
100
AcDbLine
 10
0.4765616936
 20
0.9609367832
 30
0.0
 11
0.4921866936
 21
0.9531242832
 31
0.0
1001
TCAD
1000
TCW_CUSTOM_DATA
1002
{
1000
#$AUX@_ToolInfo Properties
1070
           8
1000
Insert^JLine^JSingle@Line Single
1002
}
  0
LINE
  5
EE
100
AcDbEntity
  8
0
370
           0
  6
Continuous
 62
           7
 48
0.300000011921
100
AcDbLine
 10
0.4921866936
 20
0.9687492832
 30
0.0
 11
0.476620576329
 21
0.960907341836
 31
0.0
1001
TCAD
1000
TCW_CUSTOM_DATA
1002
{
1000
#$AUX@_ToolInfo Properties
1070
           8
1000
Insert^JLine^JSingle@Line Single
1002
}
  0
LINE
  5
EF
100
AcDbEntity
  8
0
370
           0
  6
Continuous
 62
           7
 48
0.300000011921
100
AcDbLine
 10
0.4765616936
 20
0.9765617832
 30
0.0
 11
0.4921866936
 21
0.9687492832
 31
0.0
1001
TCAD
1000
TCW_CUSTOM_DATA
1002
{
1000
#$AUX@_ToolInfo Properties
1070
           8
1000
Insert^JLine^JSingle@Line Single
1002
}
  0
LINE
  5
F0
100
AcDbEntity
  8
0
370
           0
  6
Continuous
 62
           7
 48
0.300000011921
100
AcDbLine
 10
0.4921866936
 20
0.9843742832
 30
0.0
 11
0.4765616936
 21
0.9765617832
 31
0.0
1001
TCAD
1000
TCW_CUSTOM_DATA
1002
{
1000
#$AUX@_ToolInfo Properties
1070
           8
1000
Insert^JLine^JSingle@Line Single
1002
}
  0
LINE
  5
F1
100
AcDbEntity
  8
0
370
           0
  6
Continuous
 62
           7
 48
0.300000011921
100
AcDbLine
 10
0.476591121102
 20
0.9921867832
 30
0.0
 11
0.4921866936
 21
0.9843742832
 31
0.0
1001
TCAD
1000
TCW_CUSTOM_DATA
1002
{
1000
#$AUX@_ToolInfo Properties
1070
           8
1000
Insert^JLine^JSingle@Line Single
1002
}
  0
LINE
  5
F2
100
AcDbEntity
  8
0
370
           0
  6
Continuous
 62
           7
 48
0.300000011921
100
AcDbLine
 10
0.6484366936
 20
0.8281242832
 30
0.0
 11
0.6640616936
 21
0.8203117832
 31
0.0
1001
TCAD
1000
TCW_CUSTOM_DATA
1002
{
1000
#$AUX@_ToolInfo Properties
1070
           8
1000
Insert^JLine^JSingle@Line Single
1002
}
  0
LINE
  5
F3
100
AcDbEntity
  8
0
370
           0
  6
Continuous
 62
           7
 48
0.300000011921
100
AcDbLine
 10
0.648613341787
 20
0.828035959107
 30
0.0
 11
0.6640616936
 21
0.8359367832
 31
0.0
1001
TCAD
1000
TCW_CUSTOM_DATA
1002
{
1000
#$AUX@_ToolInfo Properties
1070
           8
1000
Insert^JLine^JSingle@Line Single
1002
}
  0
LINE
  5
F4
100
AcDbEntity
  8
0
370
           0
  6
Continuous
 62
           7
 48
0.300000011921
100
AcDbLine
 10
0.6484366936
 20
0.8437492832
 30
0.0
 11
0.6640616936
 21
0.8359367832
 31
0.0
1001
TCAD
1000
TCW_CUSTOM_DATA
1002
{
1000
#$AUX@_ToolInfo Properties
1070
           8
1000
Insert^JLine^JSingle@Line Single
1002
}
  0
LINE
  5
F5
100
AcDbEntity
  8
0
370
           0
  6
Continuous
 62
           7
 48
0.300000011921
100
AcDbLine
 10
0.648598621105
 20
0.843668319448
 30
0.0
 11
0.6640616936
 21
0.8515617832
 31
0.0
1001
TCAD
1000
TCW_CUSTOM_DATA
1002
{
1000
#$AUX@_ToolInfo Properties
1070
           8
1000
Insert^JLine^JSingle@Line Single
1002
}
  0
LINE
  5
F6
100
AcDbEntity
  8
0
370
           0
  6
Continuous
 62
           7
 48
0.300000011921
100
AcDbLine
 10
0.6640616936
 20
0.8515617832
 30
0.0
 11
0.6640616936
 21
0.8515617832
 31
0.0
1001
TCAD
1000
TCW_CUSTOM_DATA
1002
{
1000
#$AUX@_ToolInfo Properties
1070
           8
1000
Insert^JLine^JSingle@Line Single
1002
}
  0
LINE
  5
F7
100
AcDbEntity
  8
0
370
           0
  6
Continuous
 62
           7
 48
0.300000011921
100
AcDbLine
 10
0.6484366936
 20
0.8593742832
 30
0.0
 11
0.6640616936
 21
0.8515617832
 31
0.0
1001
TCAD
1000
TCW_CUSTOM_DATA
1002
{
1000
#$AUX@_ToolInfo Properties
1070
           8
1000
Insert^JLine^JSingle@Line Single
1002
}
  0
LINE
  5
F8
100
AcDbEntity
  8
0
370
           0
  6
Continuous
 62
           7
 48
0.300000011921
100
AcDbLine
 10
0.6640616936
 20
0.8671867832
 30
0.0
 11
0.648583900422
 21
0.859300679789
 31
0.0
1001
TCAD
1000
TCW_CUSTOM_DATA
1002
{
1000
#$AUX@_ToolInfo Properties
1070
           8
1000
Insert^JLine^JSingle@Line Single
1002
}
  0
LINE
  5
F9
100
AcDbEntity
  8
0
370
           0
  6
Continuous
 62
           7
 48
0.300000011921
100
AcDbLine
 10
0.6484366936
 20
0.8749992832
 30
0.0
 11
0.6640616936
 21
0.8671867832
 31
0.0
1001
TCAD
1000
TCW_CUSTOM_DATA
1002
{
1000
#$AUX@_ToolInfo Properties
1070
           8
1000
Insert^JLine^JSingle@Line Single
1002
}
  0
LINE
  5
FA
100
AcDbEntity
  8
0
370
           0
  6
Continuous
 62
           7
 48
0.300000011921
100
AcDbLine
 10
0.6640616936
 20
0.8828117832
 30
0.0
 11
0.6484366936
 21
0.8749992832
 31
0.0
1001
TCAD
1000
TCW_CUSTOM_DATA
1002
{
1000
#$AUX@_ToolInfo Properties
1070
           8
1000
Insert^JLine^JSingle@Line Single
1002
}
  0
LINE
  5
FB
100
AcDbEntity
  8
0
370
           0
  6
Continuous
 62
           7
 48
0.300000011921
100
AcDbLine
 10
0.6484366936
 20
0.8906242832
 30
0.0
 11
0.6640616936
 21
0.8828117832
 31
0.0
1001
TCAD
1000
TCW_CUSTOM_DATA
1002
{
1000
#$AUX@_ToolInfo Properties
1070
           8
1000
Insert^JLine^JSingle@Line Single
1002
}
  0
LINE
  5
FC
100
AcDbEntity
  8
0
370
           0
  6
Continuous
 62
           7
 48
0.300000011921
100
AcDbLine
 10
0.6640616936
 20
0.8984367832
 30
0.0
 11
0.648554459058
 21
0.890565400471
 31
0.0
1001
TCAD
1000
TCW_CUSTOM_DATA
1002
{
1000
#$AUX@_ToolInfo Properties
1070
           8
1000
Insert^JLine^JSingle@Line Single
1002
}
  0
LINE
  5
FD
100
AcDbEntity
  8
0
370
           0
  6
Continuous
 62
           7
 48
0.300000011921
100
AcDbLine
 10
0.6484366936
 20
0.9062492832
 30
0.0
 11
0.6640616936
 21
0.8984367832
 31
0.0
1001
TCAD
1000
TCW_CUSTOM_DATA
1002
{
1000
#$AUX@_ToolInfo Properties
1070
           8
1000
Insert^JLine^JSingle@Line Single
1002
}
  0
LINE
  5
FE
100
AcDbEntity
  8
0
370
           0
  6
Continuous
 62
           7
 48
0.300000011921
100
AcDbLine
 10
0.6640616936
 20
0.9140617832
 30
0.0
 11
0.648539738376
 21
0.906197760812
 31
0.0
1001
TCAD
1000
TCW_CUSTOM_DATA
1002
{
1000
#$AUX@_ToolInfo Properties
1070
           8
1000
Insert^JLine^JSingle@Line Single
1002
}
  0
LINE
  5
FF
100
AcDbEntity
  8
0
370
           0
  6
Continuous
 62
           7
 48
0.300000011921
100
AcDbLine
 10
0.6484366936
 20
0.9218742832
 30
0.0
 11
0.6640616936
 21
0.9140617832
 31
0.0
1001
TCAD
1000
TCW_CUSTOM_DATA
1002
{
1000
#$AUX@_ToolInfo Properties
1070
           8
1000
Insert^JLine^JSingle@Line Single
1002
}
  0
LINE
  5
100
100
AcDbEntity
  8
0
370
           0
  6
Continuous
 62
           7
 48
0.300000011921
100
AcDbLine
 10
0.6640616936
 20
0.9296867832
 30
0.0
 11
0.648525017693
 21
0.921830121153
 31
0.0
1001
TCAD
1000
TCW_CUSTOM_DATA
1002
{
1000
#$AUX@_ToolInfo Properties
1070
           8
1000
Insert^JLine^JSingle@Line Single
1002
}
  0
LINE
  5
101
100
AcDbEntity
  8
0
370
           0
  6
Continuous
 62
           7
 48
0.300000011921
100
AcDbLine
 10
0.6484366936
 20
0.9374992832
 30
0.0
 11
0.6640616936
 21
0.9296867832
 31
0.0
1001
TCAD
1000
TCW_CUSTOM_DATA
1002
{
1000
#$AUX@_ToolInfo Properties
1070
           8
1000
Insert^JLine^JSingle@Line Single
1002
}
  0
LINE
  5
102
100
AcDbEntity
  8
0
370
           0
  6
Continuous
 62
           7
 48
0.300000011921
100
AcDbLine
 10
0.6640616936
 20
0.9453117832
 30
0.0
 11
0.648510297011
 21
0.937462481494
 31
0.0
1001
TCAD
1000
TCW_CUSTOM_DATA
1002
{
1000
#$AUX@_ToolInfo Properties
1070
           8
1000
Insert^JLine^JSingle@Line Single
1002
}
  0
LINE
  5
103
100
AcDbEntity
  8
0
370
           0
  6
Continuous
 62
           7
 48
0.300000011921
100
AcDbLine
 10
0.6484366936
 20
0.9531242832
 30
0.0
 11
0.6640616936
 21
0.9453117832
 31
0.0
1001
TCAD
1000
TCW_CUSTOM_DATA
1002
{
1000
#$AUX@_ToolInfo Properties
1070
           8
1000
Insert^JLine^JSingle@Line Single
1002
}
  0
LINE
  5
104
100
AcDbEntity
  8
0
370
           0
  6
Continuous
 62
           7
 48
0.300000011921
100
AcDbLine
 10
0.6640616936
 20
0.9609367832
 30
0.0
 11
0.648495576329
 21
0.953094841836
 31
0.0
1001
TCAD
1000
TCW_CUSTOM_DATA
1002
{
1000
#$AUX@_ToolInfo Properties
1070
           8
1000
Insert^JLine^JSingle@Line Single
1002
}
  0
LINE
  5
105
100
AcDbEntity
  8
0
370
           0
  6
Continuous
 62
           7
 48
0.300000011921
100
AcDbLine
 10
0.6484366936
 20
0.9687492832
 30
0.0
 11
0.6640616936
 21
0.9609367832
 31
0.0
1001
TCAD
1000
TCW_CUSTOM_DATA
1002
{
1000
#$AUX@_ToolInfo Properties
1070
           8
1000
Insert^JLine^JSingle@Line Single
1002
}
  0
LINE
  5
106
100
AcDbEntity
  8
0
370
           0
  6
Continuous
 62
           7
 48
0.300000011921
100
AcDbLine
 10
0.6640616936
 20
0.9765617832
 30
0.0
 11
0.6484366936
 21
0.9687492832
 31
0.0
1001
TCAD
1000
TCW_CUSTOM_DATA
1002
{
1000
#$AUX@_ToolInfo Properties
1070
           8
1000
Insert^JLine^JSingle@Line Single
1002
}
  0
LINE
  5
107
100
AcDbEntity
  8
0
370
           0
  6
Continuous
 62
           7
 48
0.300000011921
100
AcDbLine
 10
0.648466121102
 20
0.9843742832
 30
0.0
 11
0.6640616936
 21
0.9765617832
 31
0.0
1001
TCAD
1000
TCW_CUSTOM_DATA
1002
{
1000
#$AUX@_ToolInfo Properties
1070
           8
1000
Insert^JLine^JSingle@Line Single
1002
}
  0
LINE
  5
108
100
AcDbEntity
  8
0
370
           0
  6
Continuous
 62
           7
 48
0.300000011921
100
AcDbLine
 10
0.6484366936
 20
0.9843742832
 30
0.0
 11
0.6640616936
 21
0.9921867832
 31
0.0
1001
TCAD
1000
TCW_CUSTOM_DATA
1002
{
1000
#$AUX@_ToolInfo Properties
1070
           8
1000
Insert^JLine^JSingle@Line Single
1002
}
  0
LINE
  5
109
100
AcDbEntity
  8
0
370
           0
  6
Continuous
 62
           7
 48
0.300000011921
100
AcDbLine
 10
0.4765616936
 20
0.8203117832
 30
0.0
 11
0.477358104974
 21
0.177702232502
 31
0.0
1001
TCAD
1000
TCW_CUSTOM_DATA
1002
{
1000
#$AUX@_ToolInfo Properties
1070
           8
1000
Insert^JLine^JSingle@Line Single
1002
}
  0
LINE
  5
10A
100
AcDbEntity
  8
0
370
           0
  6
Continuous
 62
           7
 48
0.300000011921
100
AcDbLine
 10
0.6640616936
 20
0.1796867832
 30
0.0
 11
0.6640616936
 21
0.8203117832
 31
0.0
1001
TCAD
1000
TCW_CUSTOM_DATA
1002
{
1000
#$AUX@_ToolInfo Properties
1070
           8
1000
Insert^JLine^JSingle@Line Single
1002
}
  0
LINE
  5
10B
100
AcDbEntity
  8
0
370
           0
  6
Continuous
 62
           7
 48
0.300000011921
100
AcDbLine
 10
0.476591121102
 20
0.9921867832
 30
0.0
 11
0.4921866936
 21
0.9999992832
 31
0.0
1001
TCAD
1000
TCW_CUSTOM_DATA
1002
{
1000
#$AUX@_ToolInfo Properties
1070
           8
1000
Insert^JLine^JSingle@Line Single
1002
}
  0
LINE
  5
10C
100
AcDbEntity
  8
0
370
           0
  6
Continuous
 62
           7
 48
0.300000011921
100
AcDbLine
 10
0.4765616936
 20
1.0078117832
 30
0.0
 11
0.4921866936
 21
0.9999992832
 31
0.0
1001
TCAD
1000
TCW_CUSTOM_DATA
1002
{
1000
#$AUX@_ToolInfo Properties
1070
           8
1000
Modify^JMeet2Lines@Meet2Lines
1002
}
  0
LINE
  5
10D
100
AcDbEntity
  8
0
370
           0
  6
Continuous
 62
           7
 48
0.300000011921
100
AcDbLine
 10
0.6640616936
 20
0.9921867832
 30
0.0
 11
0.6484366936
 21
0.9999992832
 31
0.0
1001
TCAD
1000
TCW_CUSTOM_DATA
1002
{
1000
#$AUX@_ToolInfo Properties
1070
           8
1000
Insert^JLine^JSingle@Line Single
1002
}
  0
LINE
  5
10E
100
AcDbEntity
  8
0
370
           0
  6
Continuous
 62
           7
 48
0.300000011921
100
AcDbLine
 10
0.6484366936
 20
0.9999992832
 30
0.0
 11
0.6484366936
 21
0.9999992832
 31
0.0
1001
TCAD
1000
TCW_CUSTOM_DATA
1002
{
1000
#$AUX@_ToolInfo Properties
1070
           8
1000
Insert^JLine^JSingle@Line Single
1002
}
  0
LINE
  5
10F
100
AcDbEntity
  8
0
370
           0
  6
Continuous
 62
           7
 48
0.300000011921
100
AcDbLine
 10
0.6640616936
 20
1.0078117832
 30
0.0
 11
0.6484366936
 21
0.9999992832
 31
0.0
1001
TCAD
1000
TCW_CUSTOM_DATA
1002
{
1000
#$AUX@_ToolInfo Properties
1070
           8
1000
Modify^JMeet2Lines@Meet2Lines
1002
}
  0
LINE
  5
110
100
AcDbEntity
  8
0
370
           0
  6
Continuous
 62
           7
 48
0.300000011921
100
AcDbLine
 10
0.6640616936
 20
0.9296867832
 30
0.0
 11
0.6953116936
 21
0.9296867832
 31
0.0
1001
TCAD
1000
TCW_CUSTOM_DATA
1002
{
1000
#$AUX@_ToolInfo Properties
1070
           8
1000
Insert^JLine^JSingle@Line Single
1002
}
  0
LINE
  5
111
100
AcDbEntity
  8
0
370
           0
  6
Continuous
 62
           7
 48
0.300000011921
100
AcDbLine
 10
0.4453116936
 20
0.9296867832
 30
0.0
 11
0.4453116936
 21
1.3671867832
 31
0.0
1001
TCAD
1000
TCW_CUSTOM_DATA
1002
{
1000
#$AUX@_ToolInfo Properties
1070
           8
1000
Modify^JMeet2Lines@Meet2Lines
1002
}
  0
LINE
  5
112
100
AcDbEntity
  8
0
370
           0
  6
Continuous
 62
           7
 48
0.300000011921
100
AcDbLine
 10
0.6953116936
 20
1.3671867832
 30
0.0
 11
0.6953116936
 21
0.9296867832
 31
0.0
1001
TCAD
1000
TCW_CUSTOM_DATA
1002
{
1000
#$AUX@_ToolInfo Properties
1070
           8
1000
Modify^JMeet2Lines@Meet2Lines
1002
}
  0
LINE
  5
113
100
AcDbEntity
  8
0
370
           0
  6
Continuous
 62
           7
 48
0.300000011921
100
AcDbLine
 10
0.4765616936
 20
1.0078117832
 30
0.0
 11
0.4921866936
 21
1.0156242832
 31
0.0
1001
TCAD
1000
TCW_CUSTOM_DATA
1002
{
1000
#$AUX@_ToolInfo Properties
1070
           8
1000
Insert^JLine^JSingle@Line Single
1002
}
  0
LINE
  5
114
100
AcDbEntity
  8
0
370
           0
  6
Continuous
 62
           7
 48
0.300000011921
100
AcDbLine
 10
0.4921866936
 20
1.0156242832
 30
0.0
 11
0.4765616936
 21
1.0234367832
 31
0.0
1001
TCAD
1000
TCW_CUSTOM_DATA
1002
{
1000
#$AUX@_ToolInfo Properties
1070
           8
1000
Insert^JLine^JSingle@Line Single
1002
}
  0
LINE
  5
115
100
AcDbEntity
  8
0
370
           0
  6
Continuous
 62
           7
 48
0.300000011921
100
AcDbLine
 10
0.4765616936
 20
1.0234367832
 30
0.0
 11
0.4921866936
 21
1.0312492832
 31
0.0
1001
TCAD
1000
TCW_CUSTOM_DATA
1002
{
1000
#$AUX@_ToolInfo Properties
1070
           8
1000
Insert^JLine^JSingle@Line Single
1002
}
  0
LINE
  5
116
100
AcDbEntity
  8
0
370
           0
  6
Continuous
 62
           7
 48
0.300000011921
100
AcDbLine
 10
0.4921866936
 20
1.0312492832
 30
0.0
 11
0.4765616936
 21
1.0390617832
 31
0.0
1001
TCAD
1000
TCW_CUSTOM_DATA
1002
{
1000
#$AUX@_ToolInfo Properties
1070
           8
1000
Insert^JLine^JSingle@Line Single
1002
}
  0
LINE
  5
117
100
AcDbEntity
  8
0
370
           0
  6
Continuous
 62
           7
 48
0.300000011921
100
AcDbLine
 10
0.4765616936
 20
1.0390617832
 30
0.0
 11
0.4921866936
 21
1.0468742832
 31
0.0
1001
TCAD
1000
TCW_CUSTOM_DATA
1002
{
1000
#$AUX@_ToolInfo Properties
1070
           8
1000
Insert^JLine^JSingle@Line Single
1002
}
  0
LINE
  5
118
100
AcDbEntity
  8
0
370
           0
  6
Continuous
 62
           7
 48
0.300000011921
100
AcDbLine
 10
0.4921866936
 20
1.0468742832
 30
0.0
 11
0.4765616936
 21
1.0546867832
 31
0.0
1001
TCAD
1000
TCW_CUSTOM_DATA
1002
{
1000
#$AUX@_ToolInfo Properties
1070
           8
1000
Insert^JLine^JSingle@Line Single
1002
}
  0
LINE
  5
119
100
AcDbEntity
  8
0
370
           0
  6
Continuous
 62
           7
 48
0.300000011921
100
AcDbLine
 10
0.4765616936
 20
1.0546867832
 30
0.0
 11
0.4921866936
 21
1.0624992832
 31
0.0
1001
TCAD
1000
TCW_CUSTOM_DATA
1002
{
1000
#$AUX@_ToolInfo Properties
1070
           8
1000
Insert^JLine^JSingle@Line Single
1002
}
  0
LINE
  5
11A
100
AcDbEntity
  8
0
370
           0
  6
Continuous
 62
           7
 48
0.300000011921
100
AcDbLine
 10
0.4921866936
 20
1.0624992832
 30
0.0
 11
0.4765616936
 21
1.0703117832
 31
0.0
1001
TCAD
1000
TCW_CUSTOM_DATA
1002
{
1000
#$AUX@_ToolInfo Properties
1070
           8
1000
Insert^JLine^JSingle@Line Single
1002
}
  0
LINE
  5
11B
100
AcDbEntity
  8
0
370
           0
  6
Continuous
 62
           7
 48
0.300000011921
100
AcDbLine
 10
0.6640616936
 20
1.0078117832
 30
0.0
 11
0.6484366936
 21
1.0156242832
 31
0.0
1001
TCAD
1000
TCW_CUSTOM_DATA
1002
{
1000
#$AUX@_ToolInfo Properties
1070
           8
1000
Insert^JLine^JSingle@Line Single
1002
}
  0
LINE
  5
11C
100
AcDbEntity
  8
0
370
           0
  6
Continuous
 62
           7
 48
0.300000011921
100
AcDbLine
 10
0.6484366936
 20
1.0156242832
 30
0.0
 11
0.6640616936
 21
1.0234367832
 31
0.0
1001
TCAD
1000
TCW_CUSTOM_DATA
1002
{
1000
#$AUX@_ToolInfo Properties
1070
           8
1000
Insert^JLine^JSingle@Line Single
1002
}
  0
LINE
  5
11D
100
AcDbEntity
  8
0
370
           0
  6
Continuous
 62
           7
 48
0.300000011921
100
AcDbLine
 10
0.6640616936
 20
1.0234367832
 30
0.0
 11
0.6484366936
 21
1.0312492832
 31
0.0
1001
TCAD
1000
TCW_CUSTOM_DATA
1002
{
1000
#$AUX@_ToolInfo Properties
1070
           8
1000
Insert^JLine^JSingle@Line Single
1002
}
  0
LINE
  5
11E
100
AcDbEntity
  8
0
370
           0
  6
Continuous
 62
           7
 48
0.300000011921
100
AcDbLine
 10
0.6484366936
 20
1.0312492832
 30
0.0
 11
0.6640616936
 21
1.0390617832
 31
0.0
1001
TCAD
1000
TCW_CUSTOM_DATA
1002
{
1000
#$AUX@_ToolInfo Properties
1070
           8
1000
Insert^JLine^JSingle@Line Single
1002
}
  0
LINE
  5
11F
100
AcDbEntity
  8
0
370
           0
  6
Continuous
 62
           7
 48
0.300000011921
100
AcDbLine
 10
0.6640616936
 20
1.0390617832
 30
0.0
 11
0.6484366936
 21
1.0468742832
 31
0.0
1001
TCAD
1000
TCW_CUSTOM_DATA
1002
{
1000
#$AUX@_ToolInfo Properties
1070
           8
1000
Insert^JLine^JSingle@Line Single
1002
}
  0
LINE
  5
120
100
AcDbEntity
  8
0
370
           0
  6
Continuous
 62
           7
 48
0.300000011921
100
AcDbLine
 10
0.6484366936
 20
1.0468742832
 30
0.0
 11
0.6640616936
 21
1.0546867832
 31
0.0
1001
TCAD
1000
TCW_CUSTOM_DATA
1002
{
1000
#$AUX@_ToolInfo Properties
1070
           8
1000
Insert^JLine^JSingle@Line Single
1002
}
  0
LINE
  5
121
100
AcDbEntity
  8
0
370
           0
  6
Continuous
 62
           7
 48
0.300000011921
100
AcDbLine
 10
0.6640616936
 20
1.0546867832
 30
0.0
 11
0.6484366936
 21
1.0624992832
 31
0.0
1001
TCAD
1000
TCW_CUSTOM_DATA
1002
{
1000
#$AUX@_ToolInfo Properties
1070
           8
1000
Insert^JLine^JSingle@Line Single
1002
}
  0
LINE
  5
122
100
AcDbEntity
  8
0
370
           0
  6
Continuous
 62
           7
 48
0.300000011921
100
AcDbLine
 10
0.6484366936
 20
1.0624992832
 30
0.0
 11
0.6640616936
 21
1.0703117832
 31
0.0
1001
TCAD
1000
TCW_CUSTOM_DATA
1002
{
1000
#$AUX@_ToolInfo Properties
1070
           8
1000
Insert^JLine^JSingle@Line Single
1002
}
  0
LINE
  5
123
100
AcDbEntity
  8
0
370
           0
  6
Continuous
 62
           7
 48
0.300000011921
100
AcDbLine
 10
0.4453116936
 20
0.9296867832
 30
0.0
 11
0.476650017693
 21
0.929642621153
 31
0.0
1001
TCAD
1000
TCW_CUSTOM_DATA
1002
{
1000
#$AUX@_ToolInfo Properties
1070
           8
1000
Modify^JMeet2Lines@Meet2Lines
1002
}
  0
LINE
  5
124
100
AcDbEntity
  8
0
370
           0
  6
Continuous
 62
           7
 48
0.300000011921
100
AcDbLine
 10
0.5234366936
 20
0.1015617832
 30
0.0
 11
0.5390616936
 21
0.0624992832
 31
0.0
1001
TCAD
1000
TCW_CUSTOM_DATA
1002
{
1000
#$AUX@_ToolInfo Properties
1070
           8
1000
Modify^JMeet2Lines@Meet2Lines
1002
}
  0
LINE
  5
125
100
AcDbEntity
  8
0
370
           0
  6
Continuous
 62
           7
 48
0.300000011921
100
AcDbLine
 10
0.6015616936
 20
0.0624992832
 30
0.0
 11
0.6015616936
 21
0.0624992832
 31
0.0
1001
TCAD
1000
TCW_CUSTOM_DATA
1002
{
1000
#$AUX@_ToolInfo Properties
1070
           8
1000
Modify^JMeet2Lines@Meet2Lines
1002
}
  0
LINE
  5
126
100
AcDbEntity
  8
0
370
           0
  6
Continuous
 62
           7
 48
0.300000011921
100
AcDbLine
 10
0.6015616936
 20
0.0624992832
 30
0.0
 11
0.6171866936
 21
0.1015617832
 31
0.0
1001
TCAD
1000
TCW_CUSTOM_DATA
1002
{
1000
#$AUX@_ToolInfo Properties
1070
           8
1000
Insert^JLine^JSingle@Line Single
1002
}
  0
LINE
  5
127
100
AcDbEntity
  8
0
370
           0
  6
Continuous
 62
           7
 48
0.300000011921
100
AcDbLine
 10
0.6171866936
 20
0.1015617832
 30
0.0
 11
0.6171866936
 21
0.1171867832
 31
0.0
1001
TCAD
1000
TCW_CUSTOM_DATA
1002
{
1000
#$AUX@_ToolInfo Properties
1070
           8
1000
Insert^JLine^JSingle@Line Single
1002
}
  0
LINE
  5
128
100
AcDbEntity
  8
0
370
           0
  6
Continuous
 62
           7
 48
0.300000011921
100
AcDbLine
 10
0.5234366936
 20
0.1015617832
 30
0.0
 11
0.5234366936
 21
0.1171867832
 31
0.0
1001
TCAD
1000
TCW_CUSTOM_DATA
1002
{
1000
#$AUX@_ToolInfo Properties
1070
           8
1000
Insert^JLine^JSingle@Line Single
1002
}
  0
LINE
  5
129
100
AcDbEntity
  8
0
370
           0
  6
Continuous
 62
           7
 48
0.300000011921
100
AcDbLine
 10
0.5312491936
 20
0.1171867832
 30
0.0
 11
0.5546866936
 21
0.0624992832
 31
0.0
1001
TCAD
1000
TCW_CUSTOM_DATA
1002
{
1000
#$AUX@_ToolInfo Properties
1070
           8
1000
Insert^JLine^JSingle@Line Single
1002
}
  0
LINE
  5
12A
100
AcDbEntity
  8
0
370
           0
  6
Continuous
 62
           7
 48
0.300000011921
100
AcDbLine
 10
0.5546866936
 20
0.0624992832
 30
0.0
 11
0.5859366936
 21
0.0624992832
 31
0.0
1001
TCAD
1000
TCW_CUSTOM_DATA
1002
{
1000
#$AUX@_ToolInfo Properties
1070
           8
1000
Insert^JLine^JSingle@Line Single
1002
}
  0
LINE
  5
12B
100
AcDbEntity
  8
0
370
           0
  6
Continuous
 62
           7
 48
0.300000011921
100
AcDbLine
 10
0.5859366936
 20
0.0624992832
 30
0.0
 11
0.6093741936
 21
0.1171867832
 31
0.0
1001
TCAD
1000
TCW_CUSTOM_DATA
1002
{
1000
#$AUX@_ToolInfo Properties
1070
           8
1000
Insert^JLine^JSingle@Line Single
1002
}
  0
LINE
  5
12C
100
AcDbEntity
  8
0
370
           0
  6
Continuous
 62
           7
 48
0.300000011921
100
AcDbLine
 10
0.5312491936
 20
1.2421867832
 30
0.0
 11
0.5312491936
 21
0.1171867832
 31
0.0
1001
TCAD
1000
TCW_CUSTOM_DATA
1002
{
1000
#$AUX@_ToolInfo Properties
1070
           8
1000
Modify^JMeet2Lines@Meet2Lines
1002
}
  0
LINE
  5
12D
100
AcDbEntity
  8
0
370
           0
  6
Continuous
 62
           7
 48
0.300000011921
100
AcDbLine
 10
0.6093741936
 20
0.1171867832
 30
0.0
 11
0.6093741936
 21
1.2421867832
 31
0.0
1001
TCAD
1000
TCW_CUSTOM_DATA
1002
{
1000
#$AUX@_ToolInfo Properties
1070
           8
1000
Modify^JMeet2Lines@Meet2Lines
1002
}
  0
LWPOLYLINE
  5
12F
102
{ACAD_REACTORS
330
12E
102
}
100
AcDbEntity
  8
0
370
           0
  6
Continuous
 62
           7
100
AcDbPolyline
 90
       58
 70
           0
 10
0.5234366936
 20
0.1171867832
 10
0.4765616936
 20
0.1171867832
 10
0.4921866936
 20
0.1093742832
 10
0.4765616936
 20
0.1015617832
 10
0.4921866936
 20
0.0937492832
 10
0.4765616936
 20
0.0859367832
 10
0.4921866936
 20
0.0781242832
 10
0.4765616936
 20
0.0703117832
 10
0.4921866936
 20
0.0624992832
 10
0.4765616936
 20
0.0546867832
 10
0.4921866936
 20
0.0468742832
 10
0.4765616936
 20
0.0390617832
 10
0.4921866936
 20
0.0312492832
 10
0.4765616936
 20
0.0234367832
 10
0.4921866936
 20
0.0156242832
 10
0.4765616936
 20
0.0078117832
 10
0.4921866936
 20
-0.0000007168
 10
0.4765616936
 20
-0.0078132168
 10
0.4921866936
 20
-0.0156257168
 10
0.4765616936
 20
-0.0234382168
 10
0.4921866936
 20
-0.0312507168
 10
0.4765616936
 20
-0.0390632168
 10
0.4921866936
 20
-0.0468757168
 10
0.4765616936
 20
-0.0546882168
 10
0.4921866936
 20
-0.0625007168
 10
0.4765616936
 20
-0.0703132168
 10
0.4921866936
 20
-0.0781257168
 10
0.4765616936
 20
-0.0859382168
 10
0.4921866936
 20
-0.0937507168
 10
0.4765616936
 20
-0.1015632168
 10
0.4921866936
 20
-0.1093757168
 10
0.4765616936
 20
-0.1171882168
 10
0.4921866936
 20
-0.1250007168
 10
0.4765616936
 20
-0.1328132168
 10
0.4921866936
 20
-0.1406257168
 10
0.4765616936
 20
-0.1484382168
 10
0.4921866936
 20
-0.1562507168
 10
0.4765616936
 20
-0.1640632168
 10
0.4921866936
 20
-0.1718757168
 10
0.4765616936
 20
-0.1796882168
 10
0.4921866936
 20
-0.1875007168
 10
0.4765616936
 20
-0.1953132168
 10
0.4921866936
 20
-0.2031257168
 10
0.4765616936
 20
-0.2109382168
 10
0.4921866936
 20
-0.2187507168
 10
0.4765616936
 20
-0.2265632168
 10
0.4921866936
 20
-0.2343757168
 10
0.4765616936
 20
-0.2421882168
 10
0.4921866936
 20
-0.2500007168
 10
0.4765616936
 20
-0.2578132168
 10
0.4921866936
 20
-0.2656257168
 10
0.4765616936
 20
-0.2734382168
 10
0.4921866936
 20
-0.2812507168
 10
0.4765616936
 20
-0.2890632168
 10
0.5390616936
 20
-0.2890632168
 10
0.5390616936
 20
0.0624992832
 10
0.5234366936
 20
0.1015617832
 10
0.5234366936
 20
0.1171867832
  0
HATCH
  5
12E
100
AcDbEntity
  8
0
  6
Continuous
 62
          30
100
AcDbHatch
 10
0.0
 20
0.0
 30
0.0
210
0.0
220
0.0
230
1.0
  2
SOLID
 70
           1
 71
           1
 91
        1
 92
        3
 72
           0
 73
           1
 93
       57
 10
0.5234366935999999
 20
0.1171867832
 10
0.4765616935999999
 20
0.1171867832
 10
0.4921866935999999
 20
0.1093742832
 10
0.4765616935999999
 20
0.1015617832
 10
0.4921866935999999
 20
0.0937492832
 10
0.4765616935999999
 20
0.0859367832
 10
0.4921866935999999
 20
0.0781242832
 10
0.4765616935999999
 20
0.0703117832
 10
0.4921866935999999
 20
0.0624992832
 10
0.4765616935999999
 20
0.0546867832
 10
0.4921866935999999
 20
0.0468742832
 10
0.4765616935999999
 20
0.0390617832
 10
0.4921866935999999
 20
0.0312492832
 10
0.4765616936
 20
0.0234367831999999
 10
0.4921866935999999
 20
0.0156242832
 10
0.4765616935999999
 20
0.0078117832
 10
0.4921866935999999
 20
-0.0000007168
 10
0.4765616935999999
 20
-0.0078132168
 10
0.4921866935999999
 20
-0.0156257168
 10
0.4765616935999999
 20
-0.0234382168
 10
0.4921866935999999
 20
-0.0312507168
 10
0.4765616935999999
 20
-0.0390632168
 10
0.4921866935999999
 20
-0.0468757168
 10
0.4765616935999999
 20
-0.0546882168
 10
0.4921866935999999
 20
-0.0625007168
 10
0.4765616935999999
 20
-0.0703132168
 10
0.4921866935999999
 20
-0.0781257168
 10
0.4765616935999999
 20
-0.0859382168
 10
0.4921866935999999
 20
-0.0937507168
 10
0.4765616935999999
 20
-0.1015632168
 10
0.4921866935999999
 20
-0.1093757168
 10
0.4765616935999999
 20
-0.1171882168
 10
0.4921866935999999
 20
-0.1250007168
 10
0.4765616935999999
 20
-0.1328132168
 10
0.4921866935999999
 20
-0.1406257168
 10
0.4765616935999999
 20
-0.1484382168
 10
0.4921866935999999
 20
-0.1562507168
 10
0.4765616935999999
 20
-0.1640632168
 10
0.4921866935999999
 20
-0.1718757168
 10
0.4765616935999999
 20
-0.1796882168
 10
0.4921866935999999
 20
-0.1875007168
 10
0.4765616935999999
 20
-0.1953132168
 10
0.4921866935999999
 20
-0.2031257168
 10
0.4765616935999999
 20
-0.2109382168
 10
0.4921866935999999
 20
-0.2187507168
 10
0.4765616935999999
 20
-0.2265632168
 10
0.4921866935999999
 20
-0.2343757168
 10
0.4765616935999999
 20
-0.2421882168
 10
0.4921866935999999
 20
-0.2500007168
 10
0.4765616935999999
 20
-0.2578132168
 10
0.4921866935999999
 20
-0.2656257168
 10
0.4765616935999999
 20
-0.2734382168
 10
0.4921866935999999
 20
-0.2812507168
 10
0.4765616935999999
 20
-0.2890632168
 10
0.5390616935999999
 20
-0.2890632168
 10
0.5390616935999999
 20
0.0624992832
 10
0.5234366935999999
 20
0.1015617832
 97
        1
330
12F
 75
           0
 76
           0
 98
        0
  0
LWPOLYLINE
  5
131
102
{ACAD_REACTORS
330
130
102
}
100
AcDbEntity
  8
0
370
           0
  6
Continuous
 62
           7
100
AcDbPolyline
 90
       58
 70
           0
 10
0.6171866936
 20
0.1171867832
 10
0.6640616936
 20
0.1171867832
 10
0.6640616936
 20
0.1093742832
 10
0.6484366936
 20
0.1015617832
 10
0.6640616936
 20
0.0937492832
 10
0.6484366936
 20
0.0859367832
 10
0.6640616936
 20
0.0781242832
 10
0.6484366936
 20
0.0703117832
 10
0.6640616936
 20
0.0624992832
 10
0.6484366936
 20
0.0546867832
 10
0.6640616936
 20
0.0468742832
 10
0.6484366936
 20
0.0390617832
 10
0.6640616936
 20
0.0312492832
 10
0.6484366936
 20
0.0234367832
 10
0.6640616936
 20
0.0156242832
 10
0.6484366936
 20
0.0078117832
 10
0.6640616936
 20
-0.0000007168
 10
0.6484366936
 20
-0.0078132168
 10
0.6640616936
 20
-0.0156257168
 10
0.6484366936
 20
-0.0234382168
 10
0.6640616936
 20
-0.0312507168
 10
0.6484366936
 20
-0.0390632168
 10
0.6640616936
 20
-0.0468757168
 10
0.6484366936
 20
-0.0546882168
 10
0.6640616936
 20
-0.0625007168
 10
0.6484366936
 20
-0.0703132168
 10
0.6640616936
 20
-0.0781257168
 10
0.6484366936
 20
-0.0859382168
 10
0.6640616936
 20
-0.0937507168
 10
0.6484366936
 20
-0.1015632168
 10
0.6640616936
 20
-0.1093757168
 10
0.6484366936
 20
-0.1171882168
 10
0.6640616936
 20
-0.1250007168
 10
0.6484366936
 20
-0.1328132168
 10
0.6640616936
 20
-0.1406257168
 10
0.6484366936
 20
-0.1484382168
 10
0.6640616936
 20
-0.1562507168
 10
0.6484366936
 20
-0.1640632168
 10
0.6640616936
 20
-0.1718757168
 10
0.6484366936
 20
-0.1796882168
 10
0.6640616936
 20
-0.1875007168
 10
0.6484366936
 20
-0.1953132168
 10
0.6640616936
 20
-0.2031257168
 10
0.6484366936
 20
-0.2109382168
 10
0.6640616936
 20
-0.2187507168
 10
0.6484366936
 20
-0.2265632168
 10
0.6640616936
 20
-0.2343757168
 10
0.6484366936
 20
-0.2421882168
 10
0.6640616936
 20
-0.2500007168
 10
0.6484366936
 20
-0.2578132168
 10
0.6640616936
 20
-0.2656257168
 10
0.6484366936
 20
-0.2734382168
 10
0.6640616936
 20
-0.2812507168
 10
0.6484366936
 20
-0.2890632168
 10
0.6015616936
 20
-0.2890632168
 10
0.6015616936
 20
0.0624992832
 10
0.6171866936
 20
0.1015617832
 10
0.6171866936
 20
0.1171867832
  0
HATCH
  5
130
100
AcDbEntity
  8
0
  6
Continuous
 62
          30
100
AcDbHatch
 10
0.0
 20
0.0
 30
0.0
210
0.0
220
0.0
230
1.0
  2
SOLID
 70
           1
 71
           1
 91
        1
 92
        3
 72
           0
 73
           1
 93
       57
 10
0.6171866935999999
 20
0.1171867832
 10
0.6640616936
 20
0.1171867831999999
 10
0.6640616936
 20
0.1093742832
 10
0.6484366935999999
 20
0.1015617832
 10
0.6640616935999999
 20
0.0937492832
 10
0.6484366935999999
 20
0.0859367832
 10
0.6640616935999999
 20
0.0781242832
 10
0.6484366935999999
 20
0.0703117832
 10
0.6640616935999999
 20
0.0624992832
 10
0.6484366935999999
 20
0.0546867832
 10
0.6640616935999999
 20
0.0468742832
 10
0.6484366935999999
 20
0.0390617832
 10
0.6640616935999999
 20
0.0312492832
 10
0.6484366935999999
 20
0.0234367832
 10
0.6640616935999999
 20
0.0156242832
 10
0.6484366935999999
 20
0.0078117832
 10
0.6640616935999999
 20
-0.0000007168
 10
0.6484366935999999
 20
-0.0078132168
 10
0.6640616935999999
 20
-0.0156257168
 10
0.6484366935999999
 20
-0.0234382168
 10
0.6640616935999999
 20
-0.0312507168
 10
0.6484366935999999
 20
-0.0390632168
 10
0.6640616935999999
 20
-0.0468757168
 10
0.6484366935999999
 20
-0.0546882168
 10
0.6640616935999999
 20
-0.0625007168
 10
0.6484366935999999
 20
-0.0703132168
 10
0.6640616935999999
 20
-0.0781257168
 10
0.6484366935999999
 20
-0.0859382168
 10
0.6640616935999999
 20
-0.0937507168
 10
0.6484366935999999
 20
-0.1015632168
 10
0.6640616935999999
 20
-0.1093757168
 10
0.6484366935999999
 20
-0.1171882168
 10
0.6640616935999999
 20
-0.1250007168
 10
0.6484366935999999
 20
-0.1328132168
 10
0.6640616935999999
 20
-0.1406257168
 10
0.6484366935999999
 20
-0.1484382168
 10
0.6640616935999999
 20
-0.1562507168
 10
0.6484366935999999
 20
-0.1640632168
 10
0.6640616935999999
 20
-0.1718757168
 10
0.6484366935999999
 20
-0.1796882168
 10
0.6640616935999999
 20
-0.1875007168
 10
0.6484366935999999
 20
-0.1953132168
 10
0.6640616935999999
 20
-0.2031257168
 10
0.6484366935999999
 20
-0.2109382168
 10
0.6640616935999999
 20
-0.2187507168
 10
0.6484366935999999
 20
-0.2265632168
 10
0.6640616935999999
 20
-0.2343757168
 10
0.6484366935999999
 20
-0.2421882168
 10
0.6640616935999999
 20
-0.2500007168
 10
0.6484366935999999
 20
-0.2578132168
 10
0.6640616935999999
 20
-0.2656257168
 10
0.6484366935999999
 20
-0.2734382168
 10
0.6640616935999999
 20
-0.2812507168
 10
0.6484366935999999
 20
-0.2890632168
 10
0.6015616935999999
 20
-0.2890632168
 10
0.6015616935999999
 20
0.0624992832
 10
0.6171866935999999
 20
0.1015617832
 97
        1
330
131
 75
           0
 76
           0
 98
        0
  0
LWPOLYLINE
  5
133
102
{ACAD_REACTORS
330
132
102
}
100
AcDbEntity
  8
0
370
           0
  6
Continuous
 62
           7
100
AcDbPolyline
 90
       12
 70
           0
 10
0.4453116936
 20
0.8984367832
 10
0.4765616936
 20
0.8984367832
 10
0.4921866936
 20
0.8906242832
 10
0.4765616936
 20
0.8828117832
 10
0.4921866936
 20
0.8749992832
 10
0.4765616936
 20
0.8671867832
 10
0.4921866936
 20
0.8593742832
 10
0.4765616936
 20
0.8515617832
 10
0.4921866936
 20
0.8437492832
 10
0.4765616936
 20
0.8359367832
 10
0.4453116936
 20
0.8359367832
 10
0.4453116936
 20
0.8984367832
  0
HATCH
  5
132
100
AcDbEntity
  8
0
  6
Continuous
 62
           2
100
AcDbHatch
 10
0.0
 20
0.0
 30
0.0
210
0.0
220
0.0
230
1.0
  2
SOLID
 70
           1
 71
           1
 91
        1
 92
        3
 72
           0
 73
           1
 93
       11
 10
0.4453116935999999
 20
0.8984367832
 10
0.4765616935999999
 20
0.8984367832
 10
0.4921866935999999
 20
0.8906242832
 10
0.4765616935999999
 20
0.8828117832
 10
0.4921866935999999
 20
0.8749992832
 10
0.4765616935999999
 20
0.8671867832
 10
0.4921866935999999
 20
0.8593742832
 10
0.4765616935999999
 20
0.8515617832
 10
0.4921866935999999
 20
0.8437492832
 10
0.4765616935999999
 20
0.8359367832
 10
0.4453116935999999
 20
0.8359367832
 97
        1
330
133
 75
           0
 76
           0
 98
        0
  0
LWPOLYLINE
  5
135
102
{ACAD_REACTORS
330
134
102
}
100
AcDbEntity
  8
0
370
           0
  6
Continuous
 62
           7
100
AcDbPolyline
 90
       14
 70
           0
 10
0.6640616936
 20
0.8984367832
 10
0.6484366936
 20
0.8906242832
 10
0.6640616936
 20
0.8828117832
 10
0.6484366936
 20
0.8749992832
 10
0.6640616936
 20
0.8671867832
 10
0.6484366936
 20
0.8593742832
 10
0.6640616936
 20
0.8515617832
 10
0.6484366936
 20
0.8437492832
 10
0.6640616936
 20
0.8359367832
 10
0.8203116936
 20
0.8359367832
 10
0.8203116936
 20
0.7734367832
 10
0.8828116936
 20
0.7734367832
 10
0.8828116936
 20
0.8984367832
 10
0.6640616936
 20
0.8984367832
  0
HATCH
  5
134
100
AcDbEntity
  8
0
  6
Continuous
 62
           2
100
AcDbHatch
 10
0.0
 20
0.0
 30
0.0
210
0.0
220
0.0
230
1.0
  2
SOLID
 70
           1
 71
           1
 91
        1
 92
        3
 72
           0
 73
           1
 93
       13
 10
0.6640616935999999
 20
0.8984367832
 10
0.6484366935999999
 20
0.8906242832
 10
0.6640616935999999
 20
0.8828117832
 10
0.6484366935999999
 20
0.8749992832
 10
0.6640616935999999
 20
0.8671867832
 10
0.6484366935999999
 20
0.8593742832
 10
0.6640616935999999
 20
0.8515617832
 10
0.6484366935999999
 20
0.8437492832
 10
0.6640616935999999
 20
0.8359367832
 10
0.8203116935999999
 20
0.8359367832
 10
0.8203116935999999
 20
0.7734367832
 10
0.8828116935999999
 20
0.7734367832
 10
0.8828116935999999
 20
0.8984367832
 97
        1
330
135
 75
           0
 76
           0
 98
        0
  0
LINE
  5
136
100
AcDbEntity
  8
0
370
           0
  6
Continuous
 62
           7
 48
0.300000011921
100
AcDbLine
 10
0.4453116936
 20
1.3671867832
 30
0.0
 11
0.6953116936
 21
1.3671867832
 31
0.0
1001
TCAD
1000
TCW_CUSTOM_DATA
1002
{
1000
#$AUX@_ToolInfo Properties
1070
           8
1000
Modify^JMeet2Lines@Meet2Lines
1002
}
  0
LINE
  5
137
100
AcDbEntity
  8
0
370
           0
  6
Continuous
 62
           7
 48
0.300000011921
100
AcDbLine
 10
0.4765616936
 20
1.0703117832
 30
0.0
 11
0.4921866936
 21
1.0781242832
 31
0.0
1001
TCAD
1000
TCW_CUSTOM_DATA
1002
{
1000
#$AUX@_ToolInfo Properties
1070
           8
1000
Insert^JLine^JSingle@Line Single
1002
}
  0
LINE
  5
138
100
AcDbEntity
  8
0
370
           0
  6
Continuous
 62
           7
 48
0.300000011921
100
AcDbLine
 10
0.4765616936
 20
1.0859367832
 30
0.0
 11
0.4921866936
 21
1.0781242832
 31
0.0
1001
TCAD
1000
TCW_CUSTOM_DATA
1002
{
1000
#$AUX@_ToolInfo Properties
1070
           8
1000
Insert^JLine^JSingle@Line Single
1002
}
  0
LINE
  5
139
100
AcDbEntity
  8
0
370
           0
  6
Continuous
 62
           7
 48
0.300000011921
100
AcDbLine
 10
0.4765616936
 20
1.0859367832
 30
0.0
 11
0.4921866936
 21
1.0937492832
 31
0.0
1001
TCAD
1000
TCW_CUSTOM_DATA
1002
{
1000
#$AUX@_ToolInfo Properties
1070
           8
1000
Insert^JLine^JSingle@Line Single
1002
}
  0
LINE
  5
13A
100
AcDbEntity
  8
0
370
           0
  6
Continuous
 62
           7
 48
0.300000011921
100
AcDbLine
 10
0.4921866936
 20
1.0937492832
 30
0.0
 11
0.4765616936
 21
1.1015617832
 31
0.0
1001
TCAD
1000
TCW_CUSTOM_DATA
1002
{
1000
#$AUX@_ToolInfo Properties
1070
           8
1000
Insert^JLine^JSingle@Line Single
1002
}
  0
LINE
  5
13B
100
AcDbEntity
  8
0
370
           0
  6
Continuous
 62
           7
 48
0.300000011921
100
AcDbLine
 10
0.4765616936
 20
1.1015617832
 30
0.0
 11
0.4921866936
 21
1.1093742832
 31
0.0
1001
TCAD
1000
TCW_CUSTOM_DATA
1002
{
1000
#$AUX@_ToolInfo Properties
1070
           8
1000
Insert^JLine^JSingle@Line Single
1002
}
  0
LINE
  5
13C
100
AcDbEntity
  8
0
370
           0
  6
Continuous
 62
           7
 48
0.300000011921
100
AcDbLine
 10
0.4921866936
 20
1.1093742832
 30
0.0
 11
0.4765616936
 21
1.1171867832
 31
0.0
1001
TCAD
1000
TCW_CUSTOM_DATA
1002
{
1000
#$AUX@_ToolInfo Properties
1070
           8
1000
Insert^JLine^JSingle@Line Single
1002
}
  0
LINE
  5
13D
100
AcDbEntity
  8
0
370
           0
  6
Continuous
 62
           7
 48
0.300000011921
100
AcDbLine
 10
0.4765616936
 20
1.1171867832
 30
0.0
 11
0.4921866936
 21
1.1249992832
 31
0.0
1001
TCAD
1000
TCW_CUSTOM_DATA
1002
{
1000
#$AUX@_ToolInfo Properties
1070
           8
1000
Insert^JLine^JSingle@Line Single
1002
}
  0
LINE
  5
13E
100
AcDbEntity
  8
0
370
           0
  6
Continuous
 62
           7
 48
0.300000011921
100
AcDbLine
 10
0.4921866936
 20
1.1249992832
 30
0.0
 11
0.4765616936
 21
1.1328117832
 31
0.0
1001
TCAD
1000
TCW_CUSTOM_DATA
1002
{
1000
#$AUX@_ToolInfo Properties
1070
           8
1000
Insert^JLine^JSingle@Line Single
1002
}
  0
LINE
  5
13F
100
AcDbEntity
  8
0
370
           0
  6
Continuous
 62
           7
 48
0.300000011921
100
AcDbLine
 10
0.4921866936
 20
1.1406242832
 30
0.0
 11
0.4765616936
 21
1.1328117832
 31
0.0
1001
TCAD
1000
TCW_CUSTOM_DATA
1002
{
1000
#$AUX@_ToolInfo Properties
1070
           8
1000
Insert^JLine^JSingle@Line Single
1002
}
  0
LINE
  5
140
100
AcDbEntity
  8
0
370
           0
  6
Continuous
 62
           7
 48
0.300000011921
100
AcDbLine
 10
0.4765616936
 20
1.1484367832
 30
0.0
 11
0.4921866936
 21
1.1406242832
 31
0.0
1001
TCAD
1000
TCW_CUSTOM_DATA
1002
{
1000
#$AUX@_ToolInfo Properties
1070
           8
1000
Insert^JLine^JSingle@Line Single
1002
}
  0
LINE
  5
141
100
AcDbEntity
  8
0
370
           0
  6
Continuous
 62
           7
 48
0.300000011921
100
AcDbLine
 10
0.4921866936
 20
1.1562492832
 30
0.0
 11
0.4765616936
 21
1.1484367832
 31
0.0
1001
TCAD
1000
TCW_CUSTOM_DATA
1002
{
1000
#$AUX@_ToolInfo Properties
1070
           8
1000
Insert^JLine^JSingle@Line Single
1002
}
  0
LINE
  5
142
100
AcDbEntity
  8
0
370
           0
  6
Continuous
 62
           7
 48
0.300000011921
100
AcDbLine
 10
0.4765616936
 20
1.1640617832
 30
0.0
 11
0.4921866936
 21
1.1562492832
 31
0.0
1001
TCAD
1000
TCW_CUSTOM_DATA
1002
{
1000
#$AUX@_ToolInfo Properties
1070
           8
1000
Insert^JLine^JSingle@Line Single
1002
}
  0
LINE
  5
143
100
AcDbEntity
  8
0
370
           0
  6
Continuous
 62
           7
 48
0.300000011921
100
AcDbLine
 10
0.4921866936
 20
1.1718742832
 30
0.0
 11
0.4765616936
 21
1.1640617832
 31
0.0
1001
TCAD
1000
TCW_CUSTOM_DATA
1002
{
1000
#$AUX@_ToolInfo Properties
1070
           8
1000
Insert^JLine^JSingle@Line Single
1002
}
  0
LINE
  5
144
100
AcDbEntity
  8
0
370
           0
  6
Continuous
 62
           7
 48
0.300000011921
100
AcDbLine
 10
0.4765616936
 20
1.1796867832
 30
0.0
 11
0.4921866936
 21
1.1718742832
 31
0.0
1001
TCAD
1000
TCW_CUSTOM_DATA
1002
{
1000
#$AUX@_ToolInfo Properties
1070
           8
1000
Insert^JLine^JSingle@Line Single
1002
}
  0
LINE
  5
145
100
AcDbEntity
  8
0
370
           0
  6
Continuous
 62
           7
 48
0.300000011921
100
AcDbLine
 10
0.4921866936
 20
1.1874992832
 30
0.0
 11
0.4765616936
 21
1.1796867832
 31
0.0
1001
TCAD
1000
TCW_CUSTOM_DATA
1002
{
1000
#$AUX@_ToolInfo Properties
1070
           8
1000
Insert^JLine^JSingle@Line Single
1002
}
  0
LINE
  5
146
100
AcDbEntity
  8
0
370
           0
  6
Continuous
 62
           7
 48
0.300000011921
100
AcDbLine
 10
0.4765616936
 20
1.1953117832
 30
0.0
 11
0.4921866936
 21
1.1874992832
 31
0.0
1001
TCAD
1000
TCW_CUSTOM_DATA
1002
{
1000
#$AUX@_ToolInfo Properties
1070
           8
1000
Insert^JLine^JSingle@Line Single
1002
}
  0
LINE
  5
147
100
AcDbEntity
  8
0
370
           0
  6
Continuous
 62
           7
 48
0.300000011921
100
AcDbLine
 10
0.4921866936
 20
1.2031242832
 30
0.0
 11
0.4765616936
 21
1.1953117832
 31
0.0
1001
TCAD
1000
TCW_CUSTOM_DATA
1002
{
1000
#$AUX@_ToolInfo Properties
1070
           8
1000
Insert^JLine^JSingle@Line Single
1002
}
  0
LINE
  5
148
100
AcDbEntity
  8
0
370
           0
  6
Continuous
 62
           7
 48
0.300000011921
100
AcDbLine
 10
0.4765616936
 20
1.2109367832
 30
0.0
 11
0.4921866936
 21
1.2031242832
 31
0.0
1001
TCAD
1000
TCW_CUSTOM_DATA
1002
{
1000
#$AUX@_ToolInfo Properties
1070
           8
1000
Modify^JMeet2Lines@Meet2Lines
1002
}
  0
LINE
  5
149
100
AcDbEntity
  8
0
370
           0
  6
Continuous
 62
           7
 48
0.300000011921
100
AcDbLine
 10
0.4921866936
 20
1.2187492832
 30
0.0
 11
0.4765616936
 21
1.2109367832
 31
0.0
1001
TCAD
1000
TCW_CUSTOM_DATA
1002
{
1000
#$AUX@_ToolInfo Properties
1070
           8
1000
Insert^JLine^JSingle@Line Single
1002
}
  0
LINE
  5
14A
100
AcDbEntity
  8
0
370
           0
  6
Continuous
 62
           7
 48
0.300000011921
100
AcDbLine
 10
0.4765616936
 20
1.2265617832
 30
0.0
 11
0.4921866936
 21
1.2187492832
 31
0.0
1001
TCAD
1000
TCW_CUSTOM_DATA
1002
{
1000
#$AUX@_ToolInfo Properties
1070
           8
1000
Insert^JLine^JSingle@Line Single
1002
}
  0
LINE
  5
14B
100
AcDbEntity
  8
0
370
           0
  6
Continuous
 62
           7
 48
0.300000011921
100
AcDbLine
 10
0.4921866936
 20
1.2343742832
 30
0.0
 11
0.4765616936
 21
1.2265617832
 31
0.0
1001
TCAD
1000
TCW_CUSTOM_DATA
1002
{
1000
#$AUX@_ToolInfo Properties
1070
           8
1000
Insert^JLine^JSingle@Line Single
1002
}
  0
LINE
  5
14C
100
AcDbEntity
  8
0
370
           0
  6
Continuous
 62
           7
 48
0.300000011921
100
AcDbLine
 10
0.4921866936
 20
1.2343742832
 30
0.0
 11
0.4765616936
 21
1.2421867832
 31
0.0
1001
TCAD
1000
TCW_CUSTOM_DATA
1002
{
1000
#$AUX@_ToolInfo Properties
1070
           8
1000
Insert^JLine^JSingle@Line Single
1002
}
  0
LINE
  5
14D
100
AcDbEntity
  8
0
370
           0
  6
Continuous
 62
           7
 48
0.300000011921
100
AcDbLine
 10
0.6484366936
 20
1.0781242832
 30
0.0
 11
0.6640616936
 21
1.0859367832
 31
0.0
1001
TCAD
1000
TCW_CUSTOM_DATA
1002
{
1000
#$AUX@_ToolInfo Properties
1070
           8
1000
Insert^JLine^JSingle@Line Single
1002
}
  0
LINE
  5
14E
100
AcDbEntity
  8
0
370
           0
  6
Continuous
 62
           7
 48
0.300000011921
100
AcDbLine
 10
0.6484366936
 20
1.0937492832
 30
0.0
 11
0.6640616936
 21
1.0859367832
 31
0.0
1001
TCAD
1000
TCW_CUSTOM_DATA
1002
{
1000
#$AUX@_ToolInfo Properties
1070
           8
1000
Insert^JLine^JSingle@Line Single
1002
}
  0
LINE
  5
14F
100
AcDbEntity
  8
0
370
           0
  6
Continuous
 62
           7
 48
0.300000011921
100
AcDbLine
 10
0.6484366936
 20
1.0937492832
 30
0.0
 11
0.6640616936
 21
1.1015617832
 31
0.0
1001
TCAD
1000
TCW_CUSTOM_DATA
1002
{
1000
#$AUX@_ToolInfo Properties
1070
           8
1000
Insert^JLine^JSingle@Line Single
1002
}
  0
LINE
  5
150
100
AcDbEntity
  8
0
370
           0
  6
Continuous
 62
           7
 48
0.300000011921
100
AcDbLine
 10
0.6640616936
 20
1.1015617832
 30
0.0
 11
0.6484366936
 21
1.1093742832
 31
0.0
1001
TCAD
1000
TCW_CUSTOM_DATA
1002
{
1000
#$AUX@_ToolInfo Properties
1070
           8
1000
Insert^JLine^JSingle@Line Single
1002
}
  0
LINE
  5
151
100
AcDbEntity
  8
0
370
           0
  6
Continuous
 62
           7
 48
0.300000011921
100
AcDbLine
 10
0.6484366936
 20
1.1093742832
 30
0.0
 11
0.6640616936
 21
1.1171867832
 31
0.0
1001
TCAD
1000
TCW_CUSTOM_DATA
1002
{
1000
#$AUX@_ToolInfo Properties
1070
           8
1000
Insert^JLine^JSingle@Line Single
1002
}
  0
LINE
  5
152
100
AcDbEntity
  8
0
370
           0
  6
Continuous
 62
           7
 48
0.300000011921
100
AcDbLine
 10
0.6640616936
 20
1.1171867832
 30
0.0
 11
0.6484366936
 21
1.1249992832
 31
0.0
1001
TCAD
1000
TCW_CUSTOM_DATA
1002
{
1000
#$AUX@_ToolInfo Properties
1070
           8
1000
Insert^JLine^JSingle@Line Single
1002
}
  0
LINE
  5
153
100
AcDbEntity
  8
0
370
           0
  6
Continuous
 62
           7
 48
0.300000011921
100
AcDbLine
 10
0.6484366936
 20
1.1249992832
 30
0.0
 11
0.6640616936
 21
1.1328117832
 31
0.0
1001
TCAD
1000
TCW_CUSTOM_DATA
1002
{
1000
#$AUX@_ToolInfo Properties
1070
           8
1000
Insert^JLine^JSingle@Line Single
1002
}
  0
LINE
  5
154
100
AcDbEntity
  8
0
370
           0
  6
Continuous
 62
           7
 48
0.300000011921
100
AcDbLine
 10
0.6640616936
 20
1.1328117832
 30
0.0
 11
0.6484366936
 21
1.1406242832
 31
0.0
1001
TCAD
1000
TCW_CUSTOM_DATA
1002
{
1000
#$AUX@_ToolInfo Properties
1070
           8
1000
Insert^JLine^JSingle@Line Single
1002
}
  0
LINE
  5
155
100
AcDbEntity
  8
0
370
           0
  6
Continuous
 62
           7
 48
0.300000011921
100
AcDbLine
 10
0.6640616936
 20
1.1484367832
 30
0.0
 11
0.6484366936
 21
1.1406242832
 31
0.0
1001
TCAD
1000
TCW_CUSTOM_DATA
1002
{
1000
#$AUX@_ToolInfo Properties
1070
           8
1000
Insert^JLine^JSingle@Line Single
1002
}
  0
LINE
  5
156
100
AcDbEntity
  8
0
370
           0
  6
Continuous
 62
           7
 48
0.300000011921
100
AcDbLine
 10
0.6484366936
 20
1.1562492832
 30
0.0
 11
0.6640616936
 21
1.1484367832
 31
0.0
1001
TCAD
1000
TCW_CUSTOM_DATA
1002
{
1000
#$AUX@_ToolInfo Properties
1070
           8
1000
Insert^JLine^JSingle@Line Single
1002
}
  0
LINE
  5
157
100
AcDbEntity
  8
0
370
           0
  6
Continuous
 62
           7
 48
0.300000011921
100
AcDbLine
 10
0.6640616936
 20
1.1640617832
 30
0.0
 11
0.6484366936
 21
1.1562492832
 31
0.0
1001
TCAD
1000
TCW_CUSTOM_DATA
1002
{
1000
#$AUX@_ToolInfo Properties
1070
           8
1000
Insert^JLine^JSingle@Line Single
1002
}
  0
LINE
  5
158
100
AcDbEntity
  8
0
370
           0
  6
Continuous
 62
           7
 48
0.300000011921
100
AcDbLine
 10
0.6484366936
 20
1.1718742832
 30
0.0
 11
0.6640616936
 21
1.1640617832
 31
0.0
1001
TCAD
1000
TCW_CUSTOM_DATA
1002
{
1000
#$AUX@_ToolInfo Properties
1070
           8
1000
Insert^JLine^JSingle@Line Single
1002
}
  0
LINE
  5
159
100
AcDbEntity
  8
0
370
           0
  6
Continuous
 62
           7
 48
0.300000011921
100
AcDbLine
 10
0.6640616936
 20
1.1796867832
 30
0.0
 11
0.6484366936
 21
1.1718742832
 31
0.0
1001
TCAD
1000
TCW_CUSTOM_DATA
1002
{
1000
#$AUX@_ToolInfo Properties
1070
           8
1000
Insert^JLine^JSingle@Line Single
1002
}
  0
LINE
  5
15A
100
AcDbEntity
  8
0
370
           0
  6
Continuous
 62
           7
 48
0.300000011921
100
AcDbLine
 10
0.6484366936
 20
1.1874992832
 30
0.0
 11
0.6640616936
 21
1.1796867832
 31
0.0
1001
TCAD
1000
TCW_CUSTOM_DATA
1002
{
1000
#$AUX@_ToolInfo Properties
1070
           8
1000
Insert^JLine^JSingle@Line Single
1002
}
  0
LINE
  5
15B
100
AcDbEntity
  8
0
370
           0
  6
Continuous
 62
           7
 48
0.300000011921
100
AcDbLine
 10
0.6640616936
 20
1.1953117832
 30
0.0
 11
0.6484366936
 21
1.1874992832
 31
0.0
1001
TCAD
1000
TCW_CUSTOM_DATA
1002
{
1000
#$AUX@_ToolInfo Properties
1070
           8
1000
Insert^JLine^JSingle@Line Single
1002
}
  0
LINE
  5
15C
100
AcDbEntity
  8
0
370
           0
  6
Continuous
 62
           7
 48
0.300000011921
100
AcDbLine
 10
0.6484366936
 20
1.2031242832
 30
0.0
 11
0.6640616936
 21
1.1953117832
 31
0.0
1001
TCAD
1000
TCW_CUSTOM_DATA
1002
{
1000
#$AUX@_ToolInfo Properties
1070
           8
1000
Insert^JLine^JSingle@Line Single
1002
}
  0
LINE
  5
15D
100
AcDbEntity
  8
0
370
           0
  6
Continuous
 62
           7
 48
0.300000011921
100
AcDbLine
 10
0.6640616936
 20
1.2109367832
 30
0.0
 11
0.6484366936
 21
1.2031242832
 31
0.0
1001
TCAD
1000
TCW_CUSTOM_DATA
1002
{
1000
#$AUX@_ToolInfo Properties
1070
           8
1000
Modify^JMeet2Lines@Meet2Lines
1002
}
  0
LINE
  5
15E
100
AcDbEntity
  8
0
370
           0
  6
Continuous
 62
           7
 48
0.300000011921
100
AcDbLine
 10
0.6484366936
 20
1.2187492832
 30
0.0
 11
0.6640616936
 21
1.2109367832
 31
0.0
1001
TCAD
1000
TCW_CUSTOM_DATA
1002
{
1000
#$AUX@_ToolInfo Properties
1070
           8
1000
Insert^JLine^JSingle@Line Single
1002
}
  0
LINE
  5
15F
100
AcDbEntity
  8
0
370
           0
  6
Continuous
 62
           7
 48
0.300000011921
100
AcDbLine
 10
0.6640616936
 20
1.2265617832
 30
0.0
 11
0.6484366936
 21
1.2187492832
 31
0.0
1001
TCAD
1000
TCW_CUSTOM_DATA
1002
{
1000
#$AUX@_ToolInfo Properties
1070
           8
1000
Insert^JLine^JSingle@Line Single
1002
}
  0
LINE
  5
160
100
AcDbEntity
  8
0
370
           0
  6
Continuous
 62
           7
 48
0.300000011921
100
AcDbLine
 10
0.6484366936
 20
1.2343742832
 30
0.0
 11
0.6640616936
 21
1.2265617832
 31
0.0
1001
TCAD
1000
TCW_CUSTOM_DATA
1002
{
1000
#$AUX@_ToolInfo Properties
1070
           8
1000
Insert^JLine^JSingle@Line Single
1002
}
  0
LINE
  5
161
100
AcDbEntity
  8
0
370
           0
  6
Continuous
 62
           7
 48
0.300000011921
100
AcDbLine
 10
0.6640616936
 20
1.2421867832
 30
0.0
 11
0.6484366936
 21
1.2343742832
 31
0.0
1001
TCAD
1000
TCW_CUSTOM_DATA
1002
{
1000
#$AUX@_ToolInfo Properties
1070
           8
1000
Insert^JLine^JSingle@Line Single
1002
}
  0
LINE
  5
162
100
AcDbEntity
  8
0
370
           0
  6
Continuous
 62
           7
 48
0.300000011921
100
AcDbLine
 10
0.6484366936
 20
1.0781242832
 30
0.0
 11
0.6640616936
 21
1.0703117832
 31
0.0
1001
TCAD
1000
TCW_CUSTOM_DATA
1002
{
1000
#$AUX@_ToolInfo Properties
1070
           8
1000
Insert^JLine^JSingle@Line Single
1002
}
  0
LINE
  5
163
100
AcDbEntity
  8
0
370
           0
  6
Continuous
 62
           7
 48
0.300000011921
100
AcDbLine
 10
0.4765616936
 20
1.2421867832
 30
0.0
 11
0.5312491936
 21
1.2421867832
 31
0.0
1001
TCAD
1000
TCW_CUSTOM_DATA
1002
{
1000
#$AUX@_ToolInfo Properties
1070
           8
1000
Modify^JMeet2Lines@Meet2Lines
1002
}
  0
LINE
  5
164
100
AcDbEntity
  8
0
370
           0
  6
Continuous
 62
           7
 48
0.300000011921
100
AcDbLine
 10
0.4765616936
 20
1.2109367832
 30
0.0
 11
0.5234366936
 21
1.2109367832
 31
0.0
1001
TCAD
1000
TCW_CUSTOM_DATA
1002
{
1000
#$AUX@_ToolInfo Properties
1070
           8
1000
Modify^JMeet2Lines@Meet2Lines
1002
}
  0
LINE
  5
165
100
AcDbEntity
  8
0
370
           0
  6
Continuous
 62
           7
 48
0.300000011921
100
AcDbLine
 10
0.6093741936
 20
1.2421867832
 30
0.0
 11
0.6640616936
 21
1.2421867832
 31
0.0
1001
TCAD
1000
TCW_CUSTOM_DATA
1002
{
1000
#$AUX@_ToolInfo Properties
1070
           8
1000
Modify^JMeet2Lines@Meet2Lines
1002
}
  0
LINE
  5
166
100
AcDbEntity
  8
0
370
           0
  6
Continuous
 62
           7
 48
0.300000011921
100
AcDbLine
 10
0.5234366936
 20
0.1796867832
 30
0.0
 11
0.5234366936
 21
1.2109367832
 31
0.0
1001
TCAD
1000
TCW_REFPOINT
1002
{
1010
0.5234366936
1020
0.6015617832
1030
0.0
1002
}
1000
TCW_CUSTOM_DATA
1002
{
1000
#$AUX@_ToolInfo Properties
1070
           8
1000
Modify^JMeet2Lines@Meet2Lines
1002
}
  0
LINE
  5
167
100
AcDbEntity
  8
0
370
           0
  6
Continuous
 62
           7
 48
0.300000011921
100
AcDbLine
 10
0.6171866936
 20
0.1796867832
 30
0.0
 11
0.6171866936
 21
1.2109367832
 31
0.0
1001
TCAD
1000
TCW_REFPOINT
1002
{
1010
0.6171866936
1020
0.6015617832
1030
0.0
1002
}
1000
TCW_CUSTOM_DATA
1002
{
1000
#$AUX@_ToolInfo Properties
1070
           8
1000
Modify^JMeet2Lines@Meet2Lines
1002
}
  0
LINE
  5
168
100
AcDbEntity
  8
0
370
           0
  6
Continuous
 62
           7
 48
0.300000011921
100
AcDbLine
 10
0.6171866936
 20
1.2109367832
 30
0.0
 11
0.6640616936
 21
1.2109367832
 31
0.0
1001
TCAD
1000
TCW_CUSTOM_DATA
1002
{
1000
#$AUX@_ToolInfo Properties
1070
           8
1000
Insert^JLine^JSingle@Line Single
1002
}
  0
LWPOLYLINE
  5
16A
102
{ACAD_REACTORS
330
169
102
}
100
AcDbEntity
  8
0
370
           0
  6
Continuous
 62
           7
100
AcDbPolyline
 90
       94
 70
           0
 10
0.476650017693
 20
0.929642621153
 10
0.4921866936
 20
0.9374992832
 10
0.476635297011
 20
0.945274981494
 10
0.4921866936
 20
0.9531242832
 10
0.476620576329
 20
0.960907341836
 10
0.4921866936
 20
0.9687492832
 10
0.4765616936
 20
0.9765617832
 10
0.4921866936
 20
0.9843742832
 10
0.476591121102
 20
0.9921867832
 10
0.4921866936
 20
0.9999992832
 10
0.4765616936
 20
1.0078117832
 10
0.4921866936
 20
1.0156242832
 10
0.4765616936
 20
1.0234367832
 10
0.4921866936
 20
1.0312492832
 10
0.4765616936
 20
1.0390617832
 10
0.4921866936
 20
1.0468742832
 10
0.4765616936
 20
1.0546867832
 10
0.4921866936
 20
1.0624992832
 10
0.4765616936
 20
1.0703117832
 10
0.4921866936
 20
1.0781242832
 10
0.4765616936
 20
1.0859367832
 10
0.4921866936
 20
1.0937492832
 10
0.4765616936
 20
1.1015617832
 10
0.4921866936
 20
1.1093742832
 10
0.4765616936
 20
1.1171867832
 10
0.4921866936
 20
1.1249992832
 10
0.4765616936
 20
1.1328117832
 10
0.4921866936
 20
1.1406242832
 10
0.4765616936
 20
1.1484367832
 10
0.4921866936
 20
1.1562492832
 10
0.4765616936
 20
1.1640617832
 10
0.4921866936
 20
1.1718742832
 10
0.4765616936
 20
1.1796867832
 10
0.4921866936
 20
1.1874992832
 10
0.4765616936
 20
1.1953117832
 10
0.4921866936
 20
1.2031242832
 10
0.4765616936
 20
1.2109367832
 10
0.4921866936
 20
1.2187492832
 10
0.4765616936
 20
1.2265617832
 10
0.4921866936
 20
1.2343742832
 10
0.4765616936
 20
1.2421867832
 10
0.5312491936
 20
1.2421867832
 10
0.5312491936
 20
0.1171867832
 10
0.5546866936
 20
0.0624992832
 10
0.5859366936
 20
0.0624992832
 10
0.6093741936
 20
0.1171867832
 10
0.6093741936
 20
1.2421867832
 10
0.6640616936
 20
1.2421867832
 10
0.6484366936
 20
1.2343742832
 10
0.6640616936
 20
1.2265617832
 10
0.6484366936
 20
1.2187492832
 10
0.6640616936
 20
1.2109367832
 10
0.6484366936
 20
1.2031242832
 10
0.6640616936
 20
1.1953117832
 10
0.6484366936
 20
1.1874992832
 10
0.6640616936
 20
1.1796867832
 10
0.6484366936
 20
1.1718742832
 10
0.6640616936
 20
1.1640617832
 10
0.6484366936
 20
1.1562492832
 10
0.6640616936
 20
1.1484367832
 10
0.6484366936
 20
1.1406242832
 10
0.6640616936
 20
1.1328117832
 10
0.6484366936
 20
1.1249992832
 10
0.6640616936
 20
1.1171867832
 10
0.6484366936
 20
1.1093742832
 10
0.6640616936
 20
1.1015617832
 10
0.6484366936
 20
1.0937492832
 10
0.6640616936
 20
1.0859367832
 10
0.6484366936
 20
1.0781242832
 10
0.6640616936
 20
1.0703117832
 10
0.6484366936
 20
1.0624992832
 10
0.6640616936
 20
1.0546867832
 10
0.6484366936
 20
1.0468742832
 10
0.6640616936
 20
1.0390617832
 10
0.6484366936
 20
1.0312492832
 10
0.6640616936
 20
1.0234367832
 10
0.6484366936
 20
1.0156242832
 10
0.6640616936
 20
1.0078117832
 10
0.6484366936
 20
0.9999992832
 10
0.6640616936
 20
0.9921867832
 10
0.6484366936
 20
0.9843742832
 10
0.6640616936
 20
0.9765617832
 10
0.6484366936
 20
0.9687492832
 10
0.6640616936
 20
0.9609367832
 10
0.6484366936
 20
0.9531242832
 10
0.6640616936
 20
0.9453117832
 10
0.6484366936
 20
0.9374992832
 10
0.6640616936
 20
0.9296867832
 10
0.6953116936
 20
0.9296867832
 10
0.6953116936
 20
1.3671867832
 10
0.4453116936
 20
1.3671867832
 10
0.4453116936
 20
0.9296867832
 10
0.4765616936
 20
0.9296867832
 10
0.476650017693
 20
0.929642621153
  0
HATCH
  5
169
100
AcDbEntity
  8
0
  6
Continuous
 62
           2
100
AcDbHatch
 10
0.0
 20
0.0
 30
0.0
210
0.0
220
0.0
230
1.0
  2
SOLID
 70
           1
 71
           1
 91
        1
 92
        3
 72
           0
 73
           1
 93
       93
 10
0.4766500176933988
 20
0.9296426211533005
 10
0.4921866935999999
 20
0.9374992832
 10
0.4766352970111656
 20
0.9452749814944171
 10
0.4921866935999999
 20
0.9531242832
 10
0.4766205763289325
 20
0.9609073418355337
 10
0.4921866935999999
 20
0.9687492832
 10
0.4765616935999999
 20
0.9765617832
 10
0.4921866935999999
 20
0.9843742832
 10
0.4765911211022931
 20
0.9921867832
 10
0.4921866935999999
 20
0.9999992832
 10
0.4765616935999999
 20
1.0078117832
 10
0.4921866935999999
 20
1.0156242832
 10
0.4765616935999999
 20
1.0234367832
 10
0.4921866935999999
 20
1.0312492832
 10
0.4765616935999999
 20
1.0390617832
 10
0.4921866935999999
 20
1.0468742832
 10
0.4765616935999999
 20
1.0546867832
 10
0.4921866935999999
 20
1.0624992832
 10
0.4765616935999999
 20
1.0703117832
 10
0.4921866935999999
 20
1.0781242832
 10
0.4765616935999999
 20
1.0859367832
 10
0.4921866935999999
 20
1.0937492832
 10
0.4765616935999999
 20
1.1015617832
 10
0.4921866935999999
 20
1.1093742832
 10
0.4765616935999999
 20
1.1171867832
 10
0.4921866935999999
 20
1.1249992832
 10
0.4765616935999999
 20
1.1328117832
 10
0.4921866935999999
 20
1.1406242832
 10
0.4765616935999999
 20
1.1484367832
 10
0.4921866935999999
 20
1.1562492832
 10
0.4765616935999999
 20
1.1640617832
 10
0.4921866935999999
 20
1.1718742832
 10
0.4765616935999999
 20
1.1796867832
 10
0.4921866935999999
 20
1.1874992832
 10
0.4765616935999999
 20
1.1953117832
 10
0.4921866935999999
 20
1.2031242832
 10
0.4765616935999999
 20
1.2109367832
 10
0.4921866935999999
 20
1.2187492832
 10
0.4765616935999999
 20
1.2265617832
 10
0.4921866935999999
 20
1.2343742832
 10
0.4765616935999999
 20
1.2421867832
 10
0.5312491936
 20
1.2421867832
 10
0.5312491936
 20
0.1171867831999998
 10
0.5546866935999999
 20
0.0624992832
 10
0.5859366935999999
 20
0.0624992832
 10
0.6093741935999999
 20
0.1171867832
 10
0.6093741935999999
 20
1.2421867832
 10
0.6640616935999999
 20
1.2421867832
 10
0.6484366935999999
 20
1.2343742832
 10
0.6640616935999999
 20
1.2265617832
 10
0.6484366935999999
 20
1.2187492832
 10
0.6640616935999999
 20
1.2109367832
 10
0.6484366935999999
 20
1.2031242832
 10
0.6640616935999999
 20
1.1953117832
 10
0.6484366935999999
 20
1.1874992832
 10
0.6640616935999999
 20
1.1796867832
 10
0.6484366935999999
 20
1.1718742832
 10
0.6640616935999999
 20
1.1640617832
 10
0.6484366935999999
 20
1.1562492832
 10
0.6640616935999999
 20
1.1484367832
 10
0.6484366935999999
 20
1.1406242832
 10
0.6640616935999999
 20
1.1328117832
 10
0.6484366935999999
 20
1.1249992832
 10
0.6640616935999999
 20
1.1171867832
 10
0.6484366935999999
 20
1.1093742832
 10
0.6640616935999999
 20
1.1015617832
 10
0.6484366935999999
 20
1.0937492832
 10
0.6640616935999999
 20
1.0859367832
 10
0.6484366935999999
 20
1.0781242832
 10
0.6640616935999999
 20
1.0703117832
 10
0.6484366935999999
 20
1.0624992832
 10
0.6640616935999999
 20
1.0546867832
 10
0.6484366935999999
 20
1.0468742832
 10
0.6640616935999999
 20
1.0390617832
 10
0.6484366935999999
 20
1.0312492832
 10
0.6640616935999999
 20
1.0234367832
 10
0.6484366935999999
 20
1.0156242832
 10
0.6640616935999999
 20
1.0078117832
 10
0.6484366935999999
 20
0.9999992832
 10
0.6640616935999999
 20
0.9921867832
 10
0.6484366935999999
 20
0.9843742832
 10
0.6640616935999999
 20
0.9765617832
 10
0.6484366935999999
 20
0.9687492832
 10
0.6640616935999999
 20
0.9609367832
 10
0.6484366935999999
 20
0.9531242832
 10
0.6640616935999999
 20
0.9453117832
 10
0.6484366935999999
 20
0.9374992832
 10
0.6640616935999999
 20
0.9296867832
 10
0.6953116935999999
 20
0.9296867832
 10
0.6953116935999999
 20
1.3671867832
 10
0.4453116935999999
 20
1.3671867832
 10
0.4453116935999999
 20
0.9296867832
 10
0.4765616935999999
 20
0.9296867832
 97
        1
330
16A
 75
           0
 76
           0
 98
        0
  0
LWPOLYLINE
  5
16C
102
{ACAD_REACTORS
330
16B
102
}
100
AcDbEntity
  8
0
370
           0
  6
Continuous
 62
           7
100
AcDbPolyline
 90
       55
 70
           0
 10
0.4765616936
 20
1.2109367832
 10
0.5234366936
 20
1.2109367832
 10
0.5234366936
 20
0.1796867832
 10
0.477355645442
 20
0.1796867832
 10
0.4765616936
 20
0.8203117832
 10
0.4921866936
 20
0.8281242832
 10
0.476738341787
 20
0.835848459107
 10
0.4921866936
 20
0.8437492832
 10
0.476723621105
 20
0.851480819448
 10
0.4921866936
 20
0.8593742832
 10
0.476708900422
 20
0.867113179789
 10
0.4921866936
 20
0.8749992832
 10
0.4765616936
 20
0.8828117832
 10
0.4921866936
 20
0.8906242832
 10
0.476679459058
 20
0.898377900471
 10
0.4921866936
 20
0.9062492832
 10
0.476664738376
 20
0.914010260812
 10
0.4921866936
 20
0.9218742832
 10
0.476650017693
 20
0.929642621153
 10
0.4921866936
 20
0.9374992832
 10
0.476635297011
 20
0.945274981494
 10
0.4921866936
 20
0.9531242832
 10
0.476620576329
 20
0.960907341836
 10
0.4921866936
 20
0.9687492832
 10
0.4765616936
 20
0.9765617832
 10
0.4921866936
 20
0.9843742832
 10
0.476591121102
 20
0.9921867832
 10
0.4921866936
 20
0.9999992832
 10
0.4765616936
 20
1.0078117832
 10
0.4921866936
 20
1.0156242832
 10
0.4765616936
 20
1.0234367832
 10
0.4921866936
 20
1.0312492832
 10
0.4765616936
 20
1.0390617832
 10
0.4921866936
 20
1.0468742832
 10
0.4765616936
 20
1.0546867832
 10
0.4921866936
 20
1.0624992832
 10
0.4765616936
 20
1.0703117832
 10
0.4921866936
 20
1.0781242832
 10
0.4765616936
 20
1.0859367832
 10
0.4921866936
 20
1.0937492832
 10
0.4765616936
 20
1.1015617832
 10
0.4921866936
 20
1.1093742832
 10
0.4765616936
 20
1.1171867832
 10
0.4921866936
 20
1.1249992832
 10
0.4765616936
 20
1.1328117832
 10
0.4921866936
 20
1.1406242832
 10
0.4765616936
 20
1.1484367832
 10
0.4921866936
 20
1.1562492832
 10
0.4765616936
 20
1.1640617832
 10
0.4921866936
 20
1.1718742832
 10
0.4765616936
 20
1.1796867832
 10
0.4921866936
 20
1.1874992832
 10
0.4765616936
 20
1.1953117832
 10
0.4921866936
 20
1.2031242832
 10
0.4765616936
 20
1.2109367832
  0
HATCH
  5
16B
100
AcDbEntity
  8
0
  6
Continuous
 62
          30
100
AcDbHatch
 10
0.0
 20
0.0
 30
0.0
210
0.0
220
0.0
230
1.0
  2
SOLID
 70
           1
 71
           1
 91
        1
 92
        3
 72
           0
 73
           1
 93
       54
 10
0.4765616935999999
 20
1.2109367832
 10
0.5234366935999999
 20
1.2109367832
 10
0.5234366935999999
 20
0.1796867832
 10
0.4773556454417712
 20
0.1796867832
 10
0.4765616935999999
 20
0.8203117832
 10
0.4921866935999999
 20
0.8281242832
 10
0.4767383417867976
 20
0.8358484591066011
 10
0.4921866935999999
 20
0.8437492832
 10
0.4767236211045645
 20
0.8514808194477177
 10
0.4921866935999999
 20
0.8593742832
 10
0.4767089004223313
 20
0.8671131797888343
 10
0.4921866935999999
 20
0.8749992832
 10
0.4765616935999999
 20
0.8828117832
 10
0.4921866935999999
 20
0.8906242832
 10
0.4766794590578651
 20
0.8983779004710674
 10
0.4921866935999999
 20
0.9062492832
 10
0.476664738375632
 20
0.914010260812184
 10
0.4921866935999999
 20
0.9218742832
 10
0.4766500176933988
 20
0.9296426211533005
 10
0.4921866935999999
 20
0.9374992832
 10
0.4766352970111656
 20
0.9452749814944171
 10
0.4921866935999999
 20
0.9531242832
 10
0.4766205763289325
 20
0.9609073418355337
 10
0.4921866935999999
 20
0.9687492832
 10
0.4765616935999999
 20
0.9765617832
 10
0.4921866935999999
 20
0.9843742832
 10
0.4765911211022931
 20
0.9921867832
 10
0.4921866935999999
 20
0.9999992832
 10
0.4765616935999999
 20
1.0078117832
 10
0.4921866935999999
 20
1.0156242832
 10
0.4765616935999999
 20
1.0234367832
 10
0.4921866935999999
 20
1.0312492832
 10
0.4765616935999999
 20
1.0390617832
 10
0.4921866935999999
 20
1.0468742832
 10
0.4765616935999999
 20
1.0546867832
 10
0.4921866935999999
 20
1.0624992832
 10
0.4765616935999999
 20
1.0703117832
 10
0.4921866935999999
 20
1.0781242832
 10
0.4765616935999999
 20
1.0859367832
 10
0.4921866935999999
 20
1.0937492832
 10
0.4765616935999999
 20
1.1015617832
 10
0.4921866935999999
 20
1.1093742832
 10
0.4765616935999999
 20
1.1171867832
 10
0.4921866935999999
 20
1.1249992832
 10
0.4765616935999999
 20
1.1328117832
 10
0.4921866935999999
 20
1.1406242832
 10
0.4765616935999999
 20
1.1484367832
 10
0.4921866935999999
 20
1.1562492832
 10
0.4765616935999999
 20
1.1640617832
 10
0.4921866935999999
 20
1.1718742832
 10
0.4765616935999999
 20
1.1796867832
 10
0.4921866935999999
 20
1.1874992832
 10
0.4765616935999999
 20
1.1953117832
 10
0.4921866935999999
 20
1.2031242832
 97
        1
330
16C
 75
           0
 76
           0
 98
        0
  0
LWPOLYLINE
  5
16E
102
{ACAD_REACTORS
330
16D
102
}
100
AcDbEntity
  8
0
370
           0
  6
Continuous
 62
           7
100
AcDbPolyline
 90
       60
 70
           0
 10
0.6640616936
 20
1.2109367832
 10
0.6171866936
 20
1.2109367832
 10
0.6171866936
 20
0.1796867832
 10
0.6640616936
 20
0.1796867832
 10
0.6640616936
 20
0.8203117832
 10
0.648613341787
 20
0.828035959107
 10
0.6640616936
 20
0.8359367832
 10
0.648598621105
 20
0.843668319448
 10
0.6640616936
 20
0.8515617832
 10
0.648583900422
 20
0.859300679789
 10
0.6640616936
 20
0.8671867832
 10
0.6484366936
 20
0.8749992832
 10
0.6640616936
 20
0.8828117832
 10
0.648554459058
 20
0.890565400471
 10
0.6640616936
 20
0.8984367832
 10
0.648539738376
 20
0.906197760812
 10
0.6640616936
 20
0.9140617832
 10
0.648525017693
 20
0.921830121153
 10
0.6640616936
 20
0.9296867832
 10
0.648510297011
 20
0.937462481494
 10
0.6640616936
 20
0.9453117832
 10
0.648495576329
 20
0.953094841836
 10
0.6640616936
 20
0.9609367832
 10
0.6484366936
 20
0.9687492832
 10
0.6640616936
 20
0.9765617832
 10
0.6640616936
 20
0.9765617832
 10
0.6640616936
 20
0.9765617832
 10
0.6640616936
 20
0.9765617832
 10
0.6640616936
 20
0.9765617832
 10
0.6640616936
 20
0.9765617832
 10
0.6484366936
 20
0.9843742832
 10
0.6640616936
 20
0.9921867832
 10
0.6484366936
 20
0.9999992832
 10
0.6640616936
 20
1.0078117832
 10
0.6484366936
 20
1.0156242832
 10
0.6640616936
 20
1.0234367832
 10
0.6484366936
 20
1.0312492832
 10
0.6640616936
 20
1.0390617832
 10
0.6484366936
 20
1.0468742832
 10
0.6640616936
 20
1.0546867832
 10
0.6484366936
 20
1.0624992832
 10
0.6640616936
 20
1.0703117832
 10
0.6484366936
 20
1.0781242832
 10
0.6640616936
 20
1.0859367832
 10
0.6484366936
 20
1.0937492832
 10
0.6640616936
 20
1.1015617832
 10
0.6484366936
 20
1.1093742832
 10
0.6640616936
 20
1.1171867832
 10
0.6484366936
 20
1.1249992832
 10
0.6640616936
 20
1.1328117832
 10
0.6484366936
 20
1.1406242832
 10
0.6640616936
 20
1.1484367832
 10
0.6484366936
 20
1.1562492832
 10
0.6640616936
 20
1.1640617832
 10
0.6484366936
 20
1.1718742832
 10
0.6640616936
 20
1.1796867832
 10
0.6484366936
 20
1.1874992832
 10
0.6640616936
 20
1.1953117832
 10
0.6484366936
 20
1.2031242832
 10
0.6640616936
 20
1.2109367832
  0
HATCH
  5
16D
100
AcDbEntity
  8
0
  6
Continuous
 62
          30
100
AcDbHatch
 10
0.0
 20
0.0
 30
0.0
210
0.0
220
0.0
230
1.0
  2
SOLID
 70
           1
 71
           1
 91
        1
 92
        3
 72
           0
 73
           1
 93
       54
 10
0.6640616935999999
 20
1.2109367832
 10
0.6171866935999999
 20
1.2109367832
 10
0.6171866935999999
 20
0.1796867832
 10
0.6640616935999999
 20
0.1796867831999998
 10
0.6640616935999999
 20
0.8203117832000001
 10
0.6486133417867976
 20
0.8280359591066012
 10
0.6640616935999997
 20
0.8359367832
 10
0.6485986211045645
 20
0.8436683194477178
 10
0.6640616935999892
 20
0.8515617831999947
 10
0.6485839004223312
 20
0.8593006797888343
 10
0.6640616935999882
 20
0.8671867831999941
 10
0.6484366935999999
 20
0.8749992832000001
 10
0.6640616935999999
 20
0.8828117832000001
 10
0.6485544590578651
 20
0.8905654004710675
 10
0.6640616935999852
 20
0.8984367831999927
 10
0.648539738375632
 20
0.9061977608121841
 10
0.6640616935999999
 20
0.9140617832000001
 10
0.6485250176933988
 20
0.9218301211533007
 10
0.6640616935999997
 20
0.9296867832
 10
0.6485102970111656
 20
0.9374624814944172
 10
0.6640616935999765
 20
0.9453117831999882
 10
0.6484955763289324
 20
0.9530948418355338
 10
0.6640616935999999
 20
0.9609367832
 10
0.6484366935999999
 20
0.9687492832
 10
0.6640616935999999
 20
0.9765617832
 10
0.6484366935999999
 20
0.9843742832
 10
0.6640616935999999
 20
0.9921867832
 10
0.6484366935999999
 20
0.9999992832
 10
0.6640616935999999
 20
1.0078117832
 10
0.6484366935999999
 20
1.0156242832
 10
0.6640616935999999
 20
1.0234367832
 10
0.6484366935999999
 20
1.0312492832
 10
0.6640616935999999
 20
1.0390617832
 10
0.6484366935999999
 20
1.0468742832
 10
0.6640616935999999
 20
1.0546867832
 10
0.6484366935999999
 20
1.0624992832
 10
0.6640616935999999
 20
1.0703117832
 10
0.6484366935999999
 20
1.0781242832
 10
0.6640616935999999
 20
1.0859367832
 10
0.6484366935999999
 20
1.0937492832
 10
0.6640616935999999
 20
1.1015617832
 10
0.6484366935999999
 20
1.1093742832
 10
0.6640616935999999
 20
1.1171867832
 10
0.6484366935999999
 20
1.1249992832
 10
0.6640616935999999
 20
1.1328117832
 10
0.6484366935999999
 20
1.1406242832
 10
0.6640616935999999
 20
1.1484367832
 10
0.6484366935999999
 20
1.1562492832
 10
0.6640616935999999
 20
1.1640617832
 10
0.6484366935999999
 20
1.1718742832
 10
0.6640616935999999
 20
1.1796867832
 10
0.6484366935999999
 20
1.1874992832
 10
0.6640616935999999
 20
1.1953117832
 10
0.6484366935999999
 20
1.2031242832
 97
        1
330
16E
 75
           0
 76
           0
 98
        0
  0
CIRCLE
  5
16F
100
AcDbEntity
  8
0
370
           0
  6
Continuous
 62
           7
 48
0.300000011921
100
AcDbCircle
 10
1.5078130376
 20
-0.0859386648
 30
0.0
 40
0.3125
1001
TCAD
1000
TCW_CUSTOM_DATA
1002
{
1000
#$AUX@_ToolInfo Properties
1070
           8
1000
Insert^JCircle^JCenterAndPoint@Circle CenterAndPoint
1002
}
  0
CIRCLE
  5
170
100
AcDbEntity
  8
0
370
           0
  6
Continuous
 62
           7
 48
0.300000011921
100
AcDbCircle
 10
1.5078130376
 20
-0.0859386648
 30
0.0
 40
0.25
1001
TCAD
1000
TCW_CUSTOM_DATA
1002
{
1000
#$AUX@_ToolInfo Properties
1070
           8
1000
Insert^JCircle^JCenterAndPoint@Circle CenterAndPoint
1002
}
  0
CIRCLE
  5
171
100
AcDbEntity
  8
0
  6
HIDDEN
 62
           7
 48
0.050000000745
100
AcDbCircle
 10
1.5078130376
 20
-0.0859386648
 30
0.0
 40
0.095
1001
TCAD
1000
TCW_CUSTOM_DATA
1002
{
1000
#$AUX@_ToolInfo Properties
1070
           8
1000
Insert^JCircle^JCenterAndPoint@Circle CenterAndPoint
1002
}
  0
CIRCLE
  5
172
100
AcDbEntity
  8
0
370
           0
  6
Continuous
 62
           7
 48
0.019999999553
100
AcDbCircle
 10
1.5078130376
 20
-0.0859386648
 30
0.0
 40
0.0747
1001
TCAD
1000
TCW_CUSTOM_DATA
1002
{
1000
#$AUX@_ToolInfo Properties
1070
           8
1000
Insert^JCircle^JCenterAndPoint@Circle CenterAndPoint
1002
}
  0
LINE
  5
173
100
AcDbEntity
  8
0
370
           0
  6
Continuous
 62
           7
 48
0.300000011921
100
AcDbLine
 10
2.5078130376
 20
0.2265615592
 30
0.0
 11
2.5078130376
 21
-0.3984386648
 31
0.0
1001
TCAD
1000
TCW_CUSTOM_DATA
1002
{
1000
#$AUX@_ToolInfo Properties
1070
           8
1000
Modify^JMeet2Lines@Meet2Lines
1002
}
  0
LINE
  5
174
100
AcDbEntity
  8
0
370
           0
  6
Continuous
 62
           7
 48
0.300000011921
100
AcDbLine
 10
2.3828130376
 20
-0.3984386648
 30
0.0
 11
2.3828130376
 21
0.2265615592
 31
0.0
1001
TCAD
1000
TCW_CUSTOM_DATA
1002
{
1000
#$AUX@_ToolInfo Properties
1070
           8
1000
Modify^JMeet2Lines@Meet2Lines
1002
}
  0
LINE
  5
175
100
AcDbEntity
  8
0
  6
DASHED
 62
           7
 48
0.050000000745
100
AcDbLine
 10
2.4453130376
 20
0.1640615144
 30
0.0
 11
2.4453130376
 21
-0.3359386648
 31
0.0
1001
TCAD
1000
TCW_CUSTOM_DATA
1002
{
1000
#$AUX@_ToolInfo Properties
1070
           8
1000
Modify^JMeet2Lines@Meet2Lines
1002
}
  0
LINE
  5
176
100
AcDbEntity
  8
0
370
           0
  6
DASHDOT
 62
           1
 48
0.300000011921
100
AcDbLine
 10
1.5078130376
 20
0.3203113352
 30
0.0
 11
1.5078130376
 21
-0.4921886648
 31
0.0
1001
TCAD
1000
TCW_CUSTOM_DATA
1002
{
1000
#$AUX@_ToolInfo Properties
1070
           8
1000
Insert^JLine^JSingle@Line Single
1002
}
  0
LINE
  5
177
100
AcDbEntity
  8
0
370
           0
  6
Continuous
 62
           7
 48
0.300000011921
100
AcDbLine
 10
2.3828130376
 20
-0.3984386648
 30
0.0
 11
2.5078130376
 21
-0.3984386648
 31
0.0
1001
TCAD
1000
TCW_CUSTOM_DATA
1002
{
1000
#$AUX@_ToolInfo Properties
1070
           8
1000
Modify^JMeet2Lines@Meet2Lines
1002
}
  0
LINE
  5
178
100
AcDbEntity
  8
0
  6
DASHED
 62
           7
 48
0.050000000745
100
AcDbLine
 10
2.3828130376
 20
-0.3359386648
 30
0.0
 11
2.4453130376
 21
-0.3359386648
 31
0.0
1001
TCAD
1000
TCW_CUSTOM_DATA
1002
{
1000
#$AUX@_ToolInfo Properties
1070
           8
1000
Modify^JMeet2Lines@Meet2Lines
1002
}
  0
LINE
  5
179
100
AcDbEntity
  8
0
  6
DASHED
 62
           7
 48
0.050000000745
100
AcDbLine
 10
2.4453130376
 20
-0.1809386648
 30
0.0
 11
2.5078130376
 21
-0.1809386648
 31
0.0
1001
TCAD
1000
TCW_CUSTOM_DATA
1002
{
1000
#$AUX@_ToolInfo Properties
1070
           8
1000
Insert^JLine^JSingle@Line Single
1002
}
  0
LINE
  5
17A
100
AcDbEntity
  8
0
  6
DASHED
 62
           7
 48
0.050000000745
100
AcDbLine
 10
2.4453130376
 20
-0.1606386648
 30
0.0
 11
2.5078130376
 21
-0.1606386648
 31
0.0
1001
TCAD
1000
TCW_CUSTOM_DATA
1002
{
1000
#$AUX@_ToolInfo Properties
1070
           8
1000
Insert^JLine^JSingle@Line Single
1002
}
  0
LINE
  5
17B
100
AcDbEntity
  8
0
  6
DASHED
 62
           7
 48
0.050000000745
100
AcDbLine
 10
2.4453130376
 20
-0.0112386648
 30
0.0
 11
2.5078130376
 21
-0.0112386648
 31
0.0
1001
TCAD
1000
TCW_CUSTOM_DATA
1002
{
1000
#$AUX@_ToolInfo Properties
1070
           8
1000
Insert^JLine^JSingle@Line Single
1002
}
  0
LINE
  5
17C
100
AcDbEntity
  8
0
  6
DASHED
 62
           7
 48
0.050000000745
100
AcDbLine
 10
2.4453130376
 20
0.0090613352
 30
0.0
 11
2.5078130376
 21
0.0090613352
 31
0.0
1001
TCAD
1000
TCW_CUSTOM_DATA
1002
{
1000
#$AUX@_ToolInfo Properties
1070
           8
1000
Insert^JLine^JSingle@Line Single
1002
}
  0
LINE
  5
17D
100
AcDbEntity
  8
0
370
           0
  6
DASHDOT
 62
           1
 48
0.300000011921
100
AcDbLine
 10
1.4296880376
 20
0.0703113352
 30
0.0
 11
2.5703130376
 21
0.0703113352
 31
0.0
1001
TCAD
1000
TCW_CUSTOM_DATA
1002
{
1000
#$AUX@_ToolInfo Properties
1070
           8
1000
Insert^JLine^JSingle@Line Single
1002
}
  0
LINE
  5
17E
100
AcDbEntity
  8
0
370
           0
  6
DASHDOT
 62
           1
 48
0.300000011921
100
AcDbLine
 10
1.1171880376
 20
-0.0859386648
 30
0.0
 11
1.851562612
 21
-0.0859386648
 31
0.0
1001
TCAD
1000
TCW_CUSTOM_DATA
1002
{
1000
#$AUX@_ToolInfo Properties
1070
           8
1000
Insert^JLine^JSingle@Line Single
1002
}
  0
LEADER
  5
17F
100
AcDbEntity
  8
0
370
           0
  6
Continuous
 62
           7
100
AcDbLeader
  3
STANDARD
 73
           3
 74
           0
 75
           0
 40
0.0
 76
           3
 10
1.547307282833
 20
0.141055310472
 30
0.0
 10
1.6640630376
 20
0.3828113352
 30
0.0
 10
1.7140630376
 20
0.3828113352
 30
0.0
 77
           7
211
0.0001
221
0.0
231
0.0
1001
TCAD
1000
TCW_CUSTOM_DATA
1002
{
1000
#$AUX@_ToolInfo Properties
1070
           8
1000
Insert^JDimension^JLeader@Dimension Leader
1002
}
1001
ACAD
1000
DSTYLE
1002
{
1070
         174
1070
           0
1002
}
  0
MTEXT
  5
180
100
AcDbEntity
  8
0
  6
Continuous
 62
           7
100
AcDbMText
 10
1.7765630376
 20
0.3828113352
 30
0.0
 40
0.030000000447
 41
0.0
 71
           4
 72
           1
  1
\A1;Drill 5/64 2-places\PMake\P1 with holes\P1 without{}
 73
           1
 44
1.0
1001
TCAD
1000
TCW_REFPOINT
1002
{
1010
1.7765630376
1020
0.3828113352
1030
0.0
1002
}
1000
TCW_ATTRIBUTE
1002
{
1000
Drill 5/64 2-places^M^JMake^M^J1 with holes^M^J1 without
1002
}
1000
TCW40_TEXT
1002
{
1000
Times New Roman
1070
           0
1070
         513
1002
}
  0
LEADER
  5
181
100
AcDbEntity
  8
0
370
           0
  6
Continuous
 62
           7
100
AcDbLeader
  3
STANDARD
 73
           3
 74
           0
 75
           0
 40
0.0
 76
           3
 10
2.548564837902
 20
0.02848782134
 30
0.0
 10
2.6953130376
 20
0.1328113352
 30
0.0
 10
2.7453130376
 20
0.1328113352
 30
0.0
 77
           7
211
0.0001
221
0.0
231
0.0
1001
TCAD
1000
TCW_CUSTOM_DATA
1002
{
1000
#$AUX@_ToolInfo Properties
1070
           8
1000
Insert^JDimension^JLeader@Dimension Leader
1002
}
1001
ACAD
1000
DSTYLE
1002
{
1070
         174
1070
           0
1002
}
  0
MTEXT
  5
182
100
AcDbEntity
  8
0
  6
Continuous
 62
           7
100
AcDbMText
 10
2.8078130376
 20
0.1328113352
 30
0.0
 40
0.030000000447
 41
0.0
 71
           4
 72
           1
  1
\A1;Tap 10-32{}
 73
           1
 44
1.0
1001
TCAD
1000
TCW_REFPOINT
1002
{
1010
2.8078130376
1020
0.1328113352
1030
0.0
1002
}
1000
TCW_ATTRIBUTE
1002
{
1000
Tap 10-32
1002
}
1000
TCW40_TEXT
1002
{
1000
Times New Roman
1070
           0
1070
         513
1002
}
  0
DIMENSION
  5
190
100
AcDbEntity
  8
0
  6
Continuous
 62
           7
100
AcDbDimension
  2
*D0
 10
2.4453130152
 20
0.3828115368
 30
0.0
 11
2.726166190822
 21
0.3828115368
 31
0.0
 71
           5
 72
           1
 41
1.0
 42
0.0
  1
<0.062>
  3
STANDARD
100
AcDbAlignedDimension
 13
2.3828130152
 23
0.2421865704
 33
0.0
 14
2.4453130152
 24
0.2421865704
 34
0.0
100
AcDbRotatedDimension
1001
TCAD
1000
TCW_CUSTOM_DATA
1002
{
1000
#$AUX@_ToolInfo Properties
1070
           8
1000
Insert^JDimension^JOrthogonal@Dimension Orthogonal
1002
}
1001
ACAD
1000
DSTYLE
1002
{
1070
         174
1070
           0
1002
}
  0
DIMENSION
  5
19E
100
AcDbEntity
  8
0
  6
Continuous
 62
           7
100
AcDbDimension
  2
*D1
 10
2.5078130376
 20
0.5703115592
 30
0.0
 11
2.788666213222
 21
0.5703115592
 31
0.0
 71
           5
 72
           1
 41
1.0
 42
0.0
  1
<0.125>
  3
STANDARD
100
AcDbAlignedDimension
 13
2.3828130376
 23
0.2265615592
 33
0.0
 14
2.5078130376
 24
0.2265615592
 34
0.0
 50
-180.0
100
AcDbRotatedDimension
1001
TCAD
1000
TCW_CUSTOM_DATA
1002
{
1000
#$AUX@_ToolInfo Properties
1070
           8
1000
Insert^JDimension^JOrthogonal@Dimension Orthogonal
1002
}
1001
ACAD
1000
DSTYLE
1002
{
1070
         174
1070
           0
1002
}
  0
DIMENSION
  5
1AB
100
AcDbEntity
  8
0
  6
Continuous
 62
           7
100
AcDbDimension
  2
*D2
 10
2.2578130376
 20
-0.3359386648
 30
0.0
 11
2.2578130264
 21
-0.0859385752
 31
0.0
 71
           5
 72
           1
 41
1.0
 42
0.0
  1
<0.500>
  3
STANDARD
100
AcDbAlignedDimension
 13
2.3828130152
 23
0.1640615144
 33
0.0
 14
2.3828130376
 24
-0.3359386648
 34
0.0
 50
-90.0
100
AcDbRotatedDimension
1001
TCAD
1000
TCW_CUSTOM_DATA
1002
{
1000
#$AUX@_ToolInfo Properties
1070
           8
1000
Insert^JDimension^JOrthogonal@Dimension Orthogonal
1002
}
1001
ACAD
1000
DSTYLE
1002
{
1070
         174
1070
           0
1002
}
  0
DIMENSION
  5
1B8
100
AcDbEntity
  8
0
  6
Continuous
 62
           7
100
AcDbDimension
  2
*D3
 10
1.9765630376
 20
-0.3984386648
 30
0.0
 11
1.9765630376
 21
-0.0859386648
 31
0.0
 71
           5
 72
           1
 41
1.0
 42
0.0
  1
<0.625>
  3
STANDARD
100
AcDbAlignedDimension
 13
1.5078130376
 23
0.2265613352
 33
0.0
 14
1.5078130376
 24
-0.3984386648
 34
0.0
 50
90.0
100
AcDbRotatedDimension
1001
TCAD
1000
TCW_CUSTOM_DATA
1002
{
1000
#$AUX@_ToolInfo Properties
1070
           8
1000
Insert^JDimension^JOrthogonal@Dimension Orthogonal
1002
}
1001
ACAD
1000
DSTYLE
1002
{
1070
         174
1070
           0
1002
}
  0
LINE
  5
1B9
100
AcDbEntity
  8
0
370
           0
  6
DASHDOT
 62
           1
 48
0.300000011921
100
AcDbLine
 10
1.15625
 20
1.0390621416
 30
0.0
 11
2.5703131272
 21
1.0390621416
 31
0.0
1001
TCAD
1000
TCW_CUSTOM_DATA
1002
{
1000
#$AUX@_ToolInfo Properties
1070
           8
1000
Insert^JLine^JSingle@Line Single
1002
}
  0
LINE
  5
1BA
100
AcDbEntity
  8
0
370
           0
  6
Continuous
 62
           7
 48
0.20000000298
100
AcDbLine
 10
1.1953121416
 20
1.0859371416
 30
0.0
 11
1.1953121416
 21
0.9921871416
 31
0.0
1001
TCAD
1000
TCW_CUSTOM_DATA
1002
{
1000
#$AUX@_ToolInfo Properties
1070
           8
1000
Modify^JMeet2Lines@Meet2Lines
1002
}
  0
LINE
  5
1BB
100
AcDbEntity
  8
0
370
           0
  6
Continuous
 62
           7
 48
0.20000000298
100
AcDbLine
 10
2.5078121416
 20
1.0546871416
 30
0.0
 11
2.5078121416
 21
1.0234371416
 31
0.0
1001
TCAD
1000
TCW_CUSTOM_DATA
1002
{
1000
#$AUX@_ToolInfo Properties
1070
           8
1000
Modify^JMeet2Lines@Meet2Lines
1002
}
  0
DIMENSION
  5
1C8
100
AcDbEntity
  8
0
  6
Continuous
 62
           7
100
AcDbDimension
  2
*D4
 10
2.5078121416
 20
0.9218745296
 30
0.0
 11
1.8515621416
 21
0.9218745296
 31
0.0
 71
           5
 72
           1
 41
1.0
 42
0.0
  1
<1.312>
  3
STANDARD
100
AcDbAlignedDimension
 13
1.1953121416
 23
0.9921871416
 33
0.0
 14
2.5078121416
 24
1.0234371416
 34
0.0
100
AcDbRotatedDimension
1001
TCAD
1000
TCW_CUSTOM_DATA
1002
{
1000
#$AUX@_ToolInfo Properties
1070
           8
1000
Insert^JDimension^JOrthogonal@Dimension Orthogonal
1002
}
1001
ACAD
1000
DSTYLE
1002
{
1070
         174
1070
           0
1002
}
  0
LEADER
  5
1C9
100
AcDbEntity
  8
0
370
           0
  6
Continuous
 62
           7
100
AcDbLeader
  3
STANDARD
 73
           3
 74
           0
 75
           0
 40
0.0
 76
           3
 10
2.52345343401
 20
1.112304313985
 30
0.0
 10
2.561597468467
 20
1.167931030902
 30
0.0
 10
2.611597468467
 20
1.167931030902
 30
0.0
 77
           7
211
0.0001
221
0.0
231
0.0
1001
TCAD
1000
TCW_CUSTOM_DATA
1002
{
1000
#$AUX@_ToolInfo Properties
1070
           8
1000
Insert^JDimension^JLeader@Dimension Leader
1002
}
1001
ACAD
1000
DSTYLE
1002
{
1002
}
  0
MTEXT
  5
1CA
100
AcDbEntity
  8
0
  6
Continuous
 62
           7
100
AcDbMText
 10
2.674097468467
 20
1.167931030902
 30
0.0
 40
0.030000000447
 41
0.0
 71
           4
 72
           1
  1
\A1;30 deg. Point{}
 73
           1
 44
1.0
1001
TCAD
1000
TCW_REFPOINT
1002
{
1010
2.674097468467
1020
1.167931030902
1030
0.0
1002
}
1000
TCW_ATTRIBUTE
1002
{
1000
30 deg. Point
1002
}
1000
TCW40_TEXT
1002
{
1000
Times New Roman
1070
           0
1070
         513
1002
}
  0
LINE
  5
1CB
100
AcDbEntity
  8
0
370
           0
  6
DASHDOT
 62
           1
 48
0.300000011921
100
AcDbLine
 10
1.0078120072
 20
1.695312612
 30
0.0
 11
2.8828133512
 21
1.695312612
 31
0.0
1001
TCAD
1000
TCW_CUSTOM_DATA
1002
{
1000
#$AUX@_ToolInfo Properties
1070
           8
1000
Insert^JLine^JSingle@Line Single
1002
}
  0
LINE
  5
1CC
100
AcDbEntity
  8
0
370
           0
  6
Continuous
 62
           7
 48
0.20000000298
100
AcDbLine
 10
1.1328120968
 20
1.780312612
 30
0.0
 11
2.632813172
 21
1.780312612
 31
0.0
1001
TCAD
1000
TCW_CUSTOM_DATA
1002
{
1000
#$AUX@_ToolInfo Properties
1070
           8
1000
Modify^JMeet2Lines@Meet2Lines
1002
}
  0
LINE
  5
1CD
100
AcDbEntity
  8
0
370
           0
  6
Continuous
 62
           7
 48
0.10000000149
100
AcDbLine
 10
1.1328120968
 20
1.780312612
 30
0.0
 11
2.234375364
 21
1.780312612
 31
0.0
1001
TCAD
1000
TCW_CUSTOM_DATA
1002
{
1000
#$AUX@_ToolInfo Properties
1070
           8
1000
Modify^JMeet2Lines@Meet2Lines
1002
}
  0
LINE
  5
1CE
100
AcDbEntity
  8
0
370
           0
  6
Continuous
 62
           7
 48
0.20000000298
100
AcDbLine
 10
1.1328120968
 20
1.610312612
 30
0.0
 11
2.632813172
 21
1.610312612
 31
0.0
1001
TCAD
1000
TCW_CUSTOM_DATA
1002
{
1000
#$AUX@_ToolInfo Properties
1070
           8
1000
Modify^JMeet2Lines@Meet2Lines
1002
}
  0
LINE
  5
1CF
100
AcDbEntity
  8
0
370
           0
  6
Continuous
 62
           7
 48
0.20000000298
100
AcDbLine
 10
1.1328120968
 20
1.780312612
 30
0.0
 11
1.1328120968
 21
1.610312612
 31
0.0
1001
TCAD
1000
TCW_CUSTOM_DATA
1002
{
1000
#$AUX@_ToolInfo Properties
1070
           8
1000
Modify^JMeet2Lines@Meet2Lines
1002
}
  0
LINE
  5
1D0
100
AcDbEntity
  8
0
370
           0
  6
Continuous
 62
           7
 48
0.20000000298
100
AcDbLine
 10
2.632813172
 20
1.780312612
 30
0.0
 11
2.632813172
 21
1.610312612
 31
0.0
1001
TCAD
1000
TCW_CUSTOM_DATA
1002
{
1000
#$AUX@_ToolInfo Properties
1070
           8
1000
Modify^JMeet2Lines@Meet2Lines
1002
}
  0
LINE
  5
1D1
100
AcDbEntity
  8
0
370
           0
  6
DASHDOT
 62
           1
 48
0.300000011921
100
AcDbLine
 10
2.203125364
 20
1.8281252072
 30
0.0
 11
2.203125364
 21
1.5625000168
 31
0.0
1001
TCAD
1000
TCW_CUSTOM_DATA
1002
{
1000
#$AUX@_ToolInfo Properties
1070
           8
1000
Insert^JLine^JSingle@Line Single
1002
}
  0
LINE
  5
1D2
100
AcDbEntity
  8
0
  6
DASHED
 62
           7
 48
0.050000000745
100
AcDbLine
 10
2.171875364
 20
1.780312612
 30
0.0
 11
2.171875364
 21
1.610312612
 31
0.0
1001
TCAD
1000
TCW_CUSTOM_DATA
1002
{
1000
#$AUX@_ToolInfo Properties
1070
           8
1000
Insert^JLine^JParallel@Line Parallel
1002
}
  0
LINE
  5
1D3
100
AcDbEntity
  8
0
  6
DASHED
 62
           7
 48
0.050000000745
100
AcDbLine
 10
2.268778609497
 20
1.726562612
 30
0.0
 11
2.632813172
 21
1.726562612
 31
0.0
1001
TCAD
1000
TCW_CUSTOM_DATA
1002
{
1000
#$AUX@_ToolInfo Properties
1070
           8
1000
Modify^JMeet2Lines@Meet2Lines
1002
}
  0
LINE
  5
1D4
100
AcDbEntity
  8
0
  6
DASHED
 62
           7
 48
0.050000000745
100
AcDbLine
 10
2.268778609497
 20
1.664062612
 30
0.0
 11
2.632813172
 21
1.664062612
 31
0.0
1001
TCAD
1000
TCW_CUSTOM_DATA
1002
{
1000
#$AUX@_ToolInfo Properties
1070
           8
1000
Modify^JMeet2Lines@Meet2Lines
1002
}
  0
DIMENSION
  5
1E3
100
AcDbEntity
  8
0
  6
Continuous
 62
           7
100
AcDbDimension
  2
*D5
 10
2.9765634184
 20
1.664062612
 30
0.0
 11
2.9765634184
 21
1.695312612
 31
0.0
 71
           5
 72
           1
 41
1.0
 42
0.0
  1
<0.062>
  3
STANDARD
100
AcDbAlignedDimension
 13
2.632813172
 23
1.726562612
 33
0.0
 14
2.632813172
 24
1.664062612
 34
0.0
 50
90.0
100
AcDbRotatedDimension
1001
TCAD
1000
TCW_CUSTOM_DATA
1002
{
1000
#$AUX@_ToolInfo Properties
1070
           8
1000
Insert^JDimension^JOrthogonal@Dimension Orthogonal
1002
}
1001
ACAD
1000
DSTYLE
1002
{
1002
}
  0
DIMENSION
  5
1F0
100
AcDbEntity
  8
0
  6
Continuous
 62
           7
100
AcDbDimension
  2
*D6
 10
3.2890636424
 20
1.610312612
 30
0.0
 11
3.2890636424
 21
1.695312612
 31
0.0
 71
           5
 72
           1
 41
1.0
 42
0.0
  1
<0.170>
  3
STANDARD
100
AcDbAlignedDimension
 13
2.234375364
 23
1.780312612
 33
0.0
 14
2.632813172
 24
1.610312612
 34
0.0
 50
90.0
100
AcDbRotatedDimension
1001
TCAD
1000
TCW_CUSTOM_DATA
1002
{
1000
#$AUX@_ToolInfo Properties
1070
           8
1000
Insert^JDimension^JOrthogonal@Dimension Orthogonal
1002
}
1001
ACAD
1000
DSTYLE
1002
{
1002
}
  0
LEADER
  5
1F1
100
AcDbEntity
  8
0
370
           0
  6
Continuous
 62
           7
100
AcDbLeader
  3
STANDARD
 73
           3
 74
           0
 75
           0
 40
0.0
 76
           3
 10
2.167419575058
 20
1.570520516714
 30
0.0
 10
2.007812724
 20
1.4140624104
 30
0.0
 10
1.957812724
 20
1.4140624104
 30
0.0
 77
           7
211
0.0001
221
0.0
231
0.0
1001
TCAD
1000
TCW_CUSTOM_DATA
1002
{
1000
#$AUX@_ToolInfo Properties
1070
           8
1000
Insert^JDimension^JLeader@Dimension Leader
1002
}
1001
ACAD
1000
DSTYLE
1002
{
1002
}
  0
MTEXT
  5
1F2
100
AcDbEntity
  8
0
  6
Continuous
 62
           7
100
AcDbMText
 10
1.895312724
 20
1.4140624104
 30
0.0
 40
0.030000000447
 41
0.0
 71
           6
 72
           1
  1
\A1;cross\Pdrill\P1/16{}
 73
           1
 44
1.0
1001
TCAD
1000
TCW_REFPOINT
1002
{
1010
1.895312724
1020
1.4140624104
1030
0.0
1002
}
1000
TCW_ATTRIBUTE
1002
{
1000
cross^M^Jdrill^M^J1/16
1002
}
1000
TCW40_TEXT
1002
{
1000
Times New Roman
1070
           0
1070
         516
1002
}
  0
LEADER
  5
1F3
100
AcDbEntity
  8
0
370
           0
  6
Continuous
 62
           7
100
AcDbLeader
  3
STANDARD
 73
           3
 74
           0
 75
           0
 40
0.0
 76
           3
 10
1.597457116141
 20
1.566207205741
 30
0.0
 10
1.4453123208
 20
1.4140624104
 30
0.0
 10
1.3953123208
 20
1.4140624104
 30
0.0
 77
           7
211
0.0001
221
0.0
231
0.0
1001
TCAD
1000
TCW_CUSTOM_DATA
1002
{
1000
#$AUX@_ToolInfo Properties
1070
           8
1000
Insert^JDimension^JLeader@Dimension Leader
1002
}
1001
ACAD
1000
DSTYLE
1002
{
1002
}
  0
MTEXT
  5
1F4
100
AcDbEntity
  8
0
  6
Continuous
 62
           7
100
AcDbMText
 10
1.3328123208
 20
1.4140624104
 30
0.0
 40
0.030000000447
 41
0.0
 71
           6
 72
           1
  1
\A1;10-32 Threaded rod{}
 73
           1
 44
1.0
1001
TCAD
1000
TCW_REFPOINT
1002
{
1010
1.3328123208
1020
1.4140624104
1030
0.0
1002
}
1000
TCW_ATTRIBUTE
1002
{
1000
10-32 Threaded rod
1002
}
1000
TCW40_TEXT
1002
{
1000
Times New Roman
1070
           0
1070
         516
1002
}
  0
CIRCLE
  5
1F5
100
AcDbEntity
  8
0
370
           0
  6
Continuous
 62
           7
 48
0.300000011921
100
AcDbCircle
 10
3.3828137096
 20
-0.0859386648
 30
0.0
 40
0.125
1001
TCAD
1000
TCW_CUSTOM_DATA
1002
{
1000
#$AUX@_ToolInfo Properties
1070
           8
1000
Insert^JCircle^JCenterAndPoint@Circle CenterAndPoint
1002
}
  0
LINE
  5
1F6
100
AcDbEntity
  8
0
370
           0
  6
CENTER
 62
           1
 48
0.300000011921
100
AcDbLine
 10
3.1328135304
 20
-0.0859386648
 30
0.0
 11
3.6328138888
 21
-0.0859386648
 31
0.0
1001
TCAD
1000
TCW_CUSTOM_DATA
1002
{
1000
#$AUX@_ToolInfo Properties
1070
           8
1000
Insert^JLine^JSingle@Line Single
1002
}
  0
LINE
  5
1F7
100
AcDbEntity
  8
0
370
           0
  6
CENTER
 62
           1
 48
0.300000011921
100
AcDbLine
 10
3.3828137096
 20
-0.335938844
 30
0.0
 11
3.3828137096
 21
0.6953118952
 31
0.0
1001
TCAD
1000
TCW_CUSTOM_DATA
1002
{
1000
#$AUX@_ToolInfo Properties
1070
           8
1000
Insert^JLine^JSingle@Line Single
1002
}
  0
DIMENSION
  5
204
100
AcDbEntity
  8
0
  6
Continuous
 62
           7
100
AcDbDimension
  2
*D7
 10
3.78906409393
 20
0.6640618728
 30
0.0
 11
3.789064047093
 21
0.445311716
 31
0.0
 71
           5
 72
           1
 41
1.0
 42
0.0
  1
<0.438>
  3
STANDARD
100
AcDbAlignedDimension
 13
3.507813736752
 23
0.2265615592
 33
0.0
 14
3.507813830424
 24
0.6640618728
 34
0.0
 50
90.0
100
AcDbRotatedDimension
1001
TCAD
1000
TCW_CUSTOM_DATA
1002
{
1000
#$AUX@_ToolInfo Properties
1070
           8
1000
Insert^JDimension^JOrthogonal@Dimension Orthogonal
1002
}
1001
ACAD
1000
DSTYLE
1002
{
1002
}
  0
LINE
  5
205
100
AcDbEntity
  8
0
370
           0
  6
Continuous
 62
           7
 48
0.20000000298
100
AcDbLine
 10
3.2890636424
 20
0.6640618728
 30
0.0
 11
3.25781362
 21
0.6328118504
 31
0.0
1001
TCAD
1000
TCW_CUSTOM_DATA
1002
{
1000
#$AUX@_ToolInfo Properties
1070
           8
1000
Insert^JLine^JSingle@Line Single
1002
}
  0
LINE
  5
206
100
AcDbEntity
  8
0
370
           0
  6
Continuous
 62
           7
 48
0.20000000298
100
AcDbLine
 10
3.4765637768
 20
0.6640618728
 30
0.0
 11
3.5078137992
 21
0.6328118504
 31
0.0
1001
TCAD
1000
TCW_CUSTOM_DATA
1002
{
1000
#$AUX@_ToolInfo Properties
1070
           8
1000
Insert^JLine^JSingle@Line Single
1002
}
  0
LINE
  5
207
100
AcDbEntity
  8
0
370
           0
  6
Continuous
 62
           7
 48
0.20000000298
100
AcDbLine
 10
3.2890636424
 20
0.2265615592
 30
0.0
 11
3.25781362
 21
0.2578115816
 31
0.0
1001
TCAD
1000
TCW_CUSTOM_DATA
1002
{
1000
#$AUX@_ToolInfo Properties
1070
           8
1000
Insert^JLine^JSingle@Line Single
1002
}
  0
LINE
  5
208
100
AcDbEntity
  8
0
370
           0
  6
Continuous
 62
           7
 48
0.20000000298
100
AcDbLine
 10
3.4765637768
 20
0.2265615592
 30
0.0
 11
3.5078137992
 21
0.2578115816
 31
0.0
1001
TCAD
1000
TCW_CUSTOM_DATA
1002
{
1000
#$AUX@_ToolInfo Properties
1070
           8
1000
Insert^JLine^JSingle@Line Single
1002
}
  0
LINE
  5
209
100
AcDbEntity
  8
0
370
           0
  6
Continuous
 62
           7
 48
0.20000000298
100
AcDbLine
 10
3.2890636424
 20
0.6640618728
 30
0.0
 11
3.4765637768
 21
0.6640618728
 31
0.0
1001
TCAD
1000
TCW_CUSTOM_DATA
1002
{
1000
#$AUX@_ToolInfo Properties
1070
           8
1000
Insert^JLine^JSingle@Line Single
1002
}
  0
LINE
  5
20A
100
AcDbEntity
  8
0
370
           0
  6
Continuous
 62
           7
 48
0.20000000298
100
AcDbLine
 10
3.507813739467
 20
0.257811521867
 30
0.0
 11
3.507813772048
 21
0.632811877552
 31
0.0
1001
TCAD
1000
TCW_CUSTOM_DATA
1002
{
1000
#$AUX@_ToolInfo Properties
1070
           8
1000
Insert^JLine^JSingle@Line Single
1002
}
  0
LINE
  5
20B
100
AcDbEntity
  8
0
370
           0
  6
Continuous
 62
           7
 48
0.20000000298
100
AcDbLine
 10
3.2890636424
 20
0.2265615592
 30
0.0
 11
3.4765637768
 21
0.2265615592
 31
0.0
1001
TCAD
1000
TCW_CUSTOM_DATA
1002
{
1000
#$AUX@_ToolInfo Properties
1070
           8
1000
Insert^JLine^JSingle@Line Single
1002
}
  0
LINE
  5
20C
100
AcDbEntity
  8
0
370
           0
  6
Continuous
 62
           7
 48
0.20000000298
100
AcDbLine
 10
3.257813679733
 20
0.257811521867
 30
0.0
 11
3.257813647152
 21
0.632811877552
 31
0.0
1001
TCAD
1000
TCW_CUSTOM_DATA
1002
{
1000
#$AUX@_ToolInfo Properties
1070
           8
1000
Insert^JLine^JSingle@Line Single
1002
}
  0
LINE
  5
20D
100
AcDbEntity
  8
0
370
           0
  6
Continuous
 62
           7
 48
0.20000000298
100
AcDbLine
 10
3.257813647152
 20
0.632811877552
 30
0.0
 11
3.507813772048
 21
0.632811877552
 31
0.0
1001
TCAD
1000
TCW_CUSTOM_DATA
1002
{
1000
#$AUX@_ToolInfo Properties
1070
           8
1000
Insert^JLine^JSingle@Line Single
1002
}
  0
LINE
  5
20E
100
AcDbEntity
  8
0
370
           0
  6
Continuous
 62
           7
 48
0.20000000298
100
AcDbLine
 10
3.257813679733
 20
0.257811521867
 30
0.0
 11
3.507813739467
 21
0.257811521867
 31
0.0
1001
TCAD
1000
TCW_CUSTOM_DATA
1002
{
1000
#$AUX@_ToolInfo Properties
1070
           8
1000
Insert^JLine^JSingle@Line Single
1002
}
  0
LEADER
  5
20F
100
AcDbEntity
  8
0
370
           0
  6
Continuous
 62
           7
100
AcDbLeader
  3
STANDARD
 73
           3
 74
           0
 75
           0
 40
0.0
 76
           3
 10
3.265469234414
 20
0.182478638337
 30
0.0
 10
3.204373491373
 20
0.068329607469
 30
0.0
 10
3.154373491373
 20
0.068329607469
 30
0.0
 77
           7
211
0.0001
221
0.0
231
0.0
1001
TCAD
1000
TCW_CUSTOM_DATA
1002
{
1000
#$AUX@_ToolInfo Properties
1070
           8
1000
Insert^JDimension^JLeader@Dimension Leader
1002
}
1001
ACAD
1000
DSTYLE
1002
{
1002
}
  0
MTEXT
  5
210
100
AcDbEntity
  8
0
  6
Continuous
 62
           7
100
AcDbMText
 10
3.091873491373
 20
0.068329607469
 30
0.0
 40
0.030000000447
 41
0.0
 71
           6
 72
           1
  1
\A1;Chamfer 1/32\P{}
 73
           1
 44
1.0
1001
TCAD
1000
TCW_REFPOINT
1002
{
1010
3.091873491373
1020
0.068329607469
1030
0.0
1002
}
1000
TCW_ATTRIBUTE
1002
{
1000
Chamfer 1/32^M^J
1002
}
1000
TCW40_TEXT
1002
{
1000
Times New Roman
1070
           0
1070
         516
1002
}
  0
DIMENSION
  5
21F
100
AcDbEntity
  8
0
  6
Continuous
 62
           7
100
AcDbDimension
  2
*D8
 10
3.507813772048
 20
0.986978851785
 30
0.0
 11
3.3828137096
 21
0.986978851785
 31
0.0
 71
           5
 72
           1
 41
1.0
 42
0.0
  1
<0.250>
  3
STANDARD
100
AcDbAlignedDimension
 13
3.257813647152
 23
0.632811877552
 33
0.0
 14
3.507813772048
 24
0.632811877552
 34
0.0
 50
-180.0
100
AcDbRotatedDimension
1001
TCAD
1000
TCW_CUSTOM_DATA
1002
{
1000
#$AUX@_ToolInfo Properties
1070
           8
1000
Insert^JDimension^JOrthogonal@Dimension Orthogonal
1002
}
1001
ACAD
1000
DSTYLE
1002
{
1002
}
  0
LEADER
  5
220
100
AcDbEntity
  8
0
370
           0
  6
Continuous
 62
           7
100
AcDbLeader
  3
STANDARD
 73
           3
 74
           0
 75
           0
 40
0.0
 76
           3
 10
0.854042276331
 20
0.398903229762
 30
0.0
 10
1.040330250361
 20
0.602743051672
 30
0.0
 10
1.090330250361
 20
0.602743051672
 30
0.0
 77
           7
211
0.0001
221
0.0
231
0.0
1001
TCAD
1000
TCW_CUSTOM_DATA
1002
{
1000
#$AUX@_ToolInfo Properties
1070
           8
1000
Insert^JDimension^JLeader@Dimension Leader
1002
}
1001
ACAD
1000
DSTYLE
1002
{
1002
}
  0
MTEXT
  5
221
100
AcDbEntity
  8
0
  6
Continuous
 62
           7
100
AcDbMText
 10
1.152830250361
 20
0.602743051672
 30
0.0
 40
0.030000000447
 41
0.0
 71
           4
 72
           1
  1
\A1;1/2 OD - 1/16 wall\Pclear vinyl  tube\P3/4 long{}
 73
           1
 44
1.0
1001
TCAD
1000
TCW_REFPOINT
1002
{
1010
1.152830250361
1020
0.602743051672
1030
0.0
1002
}
1000
TCW_ATTRIBUTE
1002
{
1000
1/2 OD - 1/16 wall^M^Jclear vinyl  tube^M^J3/4 long
1002
}
1000
TCW40_TEXT
1002
{
1000
Times New Roman
1070
           0
1070
         513
1002
}
  0
LEADER
  5
222
100
AcDbEntity
  8
0
370
           0
  6
Continuous
 62
           7
100
AcDbLeader
  3
STANDARD
 73
           3
 74
           0
 75
           0
 40
0.0
 76
           3
 10
0.788998378093
 20
-0.171895063101
 30
0.0
 10
0.902049968874
 20
-0.313566579866
 30
0.0
 10
0.952049968874
 20
-0.313566579866
 30
0.0
 77
           7
211
0.0001
221
0.0
231
0.0
1001
TCAD
1000
TCW_CUSTOM_DATA
1002
{
1000
#$AUX@_ToolInfo Properties
1070
           8
1000
Insert^JDimension^JLeader@Dimension Leader
1002
}
1001
ACAD
1000
DSTYLE
1002
{
1002
}
  0
MTEXT
  5
223
100
AcDbEntity
  8
0
  6
Continuous
 62
           7
100
AcDbMText
 10
1.014549968874
 20
-0.313566579866
 30
0.0
 40
0.030000000447
 41
0.0
 71
           4
 72
           1
  1
\A1;10-32\PBrass hex nut\P{}
 73
           1
 44
1.0
1001
TCAD
1000
TCW_REFPOINT
1002
{
1010
1.014549968874
1020
-0.313566579866
1030
0.0
1002
}
1000
TCW_ATTRIBUTE
1002
{
1000
10-32^M^JBrass hex nut^M^J
1002
}
1000
TCW40_TEXT
1002
{
1000
Times New Roman
1070
           0
1070
         513
1002
}
  0
LEADER
  5
224
100
AcDbEntity
  8
0
370
           0
  6
Continuous
 62
           7
100
AcDbLeader
  3
STANDARD
 73
           3
 74
           0
 75
           0
 40
0.0
 76
           3
 10
3.20781362
 20
0.4140616936
 30
0.0
 10
3.163914464962
 20
0.4140616936
 30
0.0
 10
3.113914464962
 20
0.4140616936
 30
0.0
 77
           7
211
0.0001
221
0.0
231
0.0
1001
TCAD
1000
TCW_CUSTOM_DATA
1002
{
1000
#$AUX@_ToolInfo Properties
1070
           8
1000
Insert^JDimension^JLeader@Dimension Leader
1002
}
1001
ACAD
1000
DSTYLE
1002
{
1002
}
  0
MTEXT
  5
225
100
AcDbEntity
  8
0
  6
Continuous
 62
           7
100
AcDbMText
 10
3.051414464962
 20
0.4140616936
 30
0.0
 40
0.030000000447
 41
0.0
 71
           6
 72
           1
  1
\A1;knurl{}
 73
           1
 44
1.0
1001
TCAD
1000
TCW_REFPOINT
1002
{
1010
3.051414464962
1020
0.4140616936
1030
0.0
1002
}
1000
TCW_ATTRIBUTE
1002
{
1000
knurl
1002
}
1000
TCW40_TEXT
1002
{
1000
Times New Roman
1070
           0
1070
         516
1002
}
  0
LINE
  5
226
100
AcDbEntity
  8
0
  6
DASHED
 62
           7
 48
0.050000000745
100
AcDbLine
 10
3.2978137096
 20
0.5390615592
 30
0.0
 11
3.4678137096
 21
0.5390615592
 31
0.0
1001
TCAD
1000
TCW_CUSTOM_DATA
1002
{
1000
#$AUX@_ToolInfo Properties
1070
           8
1000
Insert^JLine^JParallel@Line Parallel
1002
}
  0
CIRCLE
  5
227
100
AcDbEntity
  8
0
  6
DASHED
 62
           7
 48
0.050000000745
100
AcDbCircle
 10
3.3828137096
 20
-0.0859386648
 30
0.0
 40
0.0747
1001
TCAD
1000
TCW_CUSTOM_DATA
1002
{
1000
#$AUX@_ToolInfo Properties
1070
           8
1000
Insert^JCircle^JCenterAndPoint@Circle CenterAndPoint
1002
}
  0
CIRCLE
  5
228
100
AcDbEntity
  8
0
  6
DASHED
 62
           7
 48
0.050000000745
100
AcDbCircle
 10
3.3828137096
 20
-0.0859386648
 30
0.0
 40
0.085
1001
TCAD
1000
TCW_CUSTOM_DATA
1002
{
1000
#$AUX@_ToolInfo Properties
1070
           8
1000
Insert^JCircle^JCenterAndPoint@Circle CenterAndPoint
1002
}
  0
LINE
  5
229
100
AcDbEntity
  8
0
  6
DASHED
 62
           7
 48
0.050000000745
100
AcDbLine
 10
3.3081137096
 20
0.2265615592
 30
0.0
 11
3.3081137096
 21
0.5390615592
 31
0.0
1001
TCAD
1000
TCW_CUSTOM_DATA
1002
{
1000
#$AUX@_ToolInfo Properties
1070
           8
1000
Insert^JLine^JParallel@Line Parallel
1002
}
  0
LINE
  5
22A
100
AcDbEntity
  8
0
  6
DASHED
 62
           7
 48
0.050000000745
100
AcDbLine
 10
3.2978137096
 20
0.2265615592
 30
0.0
 11
3.2978137096
 21
0.5390615592
 31
0.0
1001
TCAD
1000
TCW_CUSTOM_DATA
1002
{
1000
#$AUX@_ToolInfo Properties
1070
           8
1000
Insert^JLine^JParallel@Line Parallel
1002
}
  0
LINE
  5
22B
100
AcDbEntity
  8
0
  6
DASHED
 62
           7
 48
0.050000000745
100
AcDbLine
 10
3.4575137096
 20
0.2265615592
 30
0.0
 11
3.4575137096
 21
0.5390615592
 31
0.0
1001
TCAD
1000
TCW_CUSTOM_DATA
1002
{
1000
#$AUX@_ToolInfo Properties
1070
           8
1000
Insert^JLine^JParallel@Line Parallel
1002
}
  0
LINE
  5
22C
100
AcDbEntity
  8
0
  6
DASHED
 62
           7
 48
0.050000000745
100
AcDbLine
 10
3.4678137096
 20
0.2265615592
 30
0.0
 11
3.4678137096
 21
0.5390615592
 31
0.0
1001
TCAD
1000
TCW_CUSTOM_DATA
1002
{
1000
#$AUX@_ToolInfo Properties
1070
           8
1000
Insert^JLine^JParallel@Line Parallel
1002
}
  0
DIMENSION
  5
239
100
AcDbEntity
  8
0
  6
Continuous
 62
           7
100
AcDbDimension
  2
*D9
 10
3.6328138888
 20
0.5390615592
 30
0.0
 11
3.6328138888
 21
0.3828115592
 31
0.0
 71
           5
 72
           1
 41
1.0
 42
0.0
  1
<0.312>
  3
STANDARD
100
AcDbAlignedDimension
 13
3.4765637768
 23
0.2265615592
 33
0.0
 14
3.4678137096
 24
0.5390615592
 34
0.0
 50
-90.0
100
AcDbRotatedDimension
1001
TCAD
1000
TCW_CUSTOM_DATA
1002
{
1000
#$AUX@_ToolInfo Properties
1070
           8
1000
Insert^JDimension^JOrthogonal@Dimension Orthogonal
1002
}
1001
ACAD
1000
DSTYLE
1002
{
1002
}
  0
LEADER
  5
23A
100
AcDbEntity
  8
0
370
           0
  6
Continuous
 62
           7
100
AcDbLeader
  3
STANDARD
 73
           3
 74
           0
 75
           0
 40
0.0
 76
           3
 10
3.467674434175
 20
0.02128273955
 30
0.0
 10
3.5078137992
 20
0.1015614696
 30
0.0
 10
3.5578137992
 20
0.1015614696
 30
0.0
 77
           7
211
0.0001
221
0.0
231
0.0
1001
TCAD
1000
TCW_CUSTOM_DATA
1002
{
1000
#$AUX@_ToolInfo Properties
1070
           8
1000
Insert^JDimension^JLeader@Dimension Leader
1002
}
1001
ACAD
1000
DSTYLE
1002
{
1002
}
  0
MTEXT
  5
23B
100
AcDbEntity
  8
0
  6
Continuous
 62
           7
100
AcDbMText
 10
3.6203137992
 20
0.1015614696
 30
0.0
 40
0.030000000447
 41
0.0
 71
           4
 72
           1
  1
\A1;tap 10-32{}
 73
           1
 44
1.0
1001
TCAD
1000
TCW_REFPOINT
1002
{
1010
3.6203137992
1020
0.1015614696
1030
0.0
1002
}
1000
TCW_ATTRIBUTE
1002
{
1000
tap 10-32
1002
}
1000
TCW40_TEXT
1002
{
1000
Times New Roman
1070
           0
1070
         513
1002
}
  0
LINE
  5
23C
100
AcDbEntity
  8
0
370
           0
  6
DASHDOT
 62
           1
 48
0.300000011921
100
AcDbLine
 10
1.4453123208
 20
-0.2421887768
 30
0.0
 11
2.5703131272
 21
-0.2421887768
 31
0.0
1001
TCAD
1000
TCW_CUSTOM_DATA
1002
{
1000
#$AUX@_ToolInfo Properties
1070
           8
1000
Insert^JLine^JSingle@Line Single
1002
}
  0
LEADER
  5
23D
100
AcDbEntity
  8
0
370
           0
  6
Continuous
 62
           7
100
AcDbLeader
  3
STANDARD
 73
           3
 74
           0
 75
           0
 40
0.0
 76
           3
 10
0.507874243875
 20
1.41138646335
 30
0.0
 10
0.473405995969
 20
1.4765624552
 30
0.0
 10
0.423405995969
 20
1.4765624552
 30
0.0
 77
           7
211
0.0001
221
0.0
231
0.0
1001
TCAD
1000
TCW_CUSTOM_DATA
1002
{
1000
#$AUX@_ToolInfo Properties
1070
           8
1000
Insert^JDimension^JLeader@Dimension Leader
1002
}
1001
ACAD
1000
DSTYLE
1002
{
1002
}
  0
MTEXT
  5
23E
100
AcDbEntity
  8
0
  6
Continuous
 62
           7
100
AcDbMText
 10
0.360905995969
 20
1.4765624552
 30
0.0
 40
0.030000000447
 41
0.0
 71
           6
 72
           1
  1
\A1;Silver Solder\PStem In Knurled\PThumb Knob{}
 73
           1
 44
1.0
1001
TCAD
1000
TCW_REFPOINT
1002
{
1010
0.360905995969
1020
1.4765624552
1030
0.0
1002
}
1000
TCW_ATTRIBUTE
1002
{
1000
Silver Solder^M^JStem In Knurled^M^JThumb Knob
1002
}
1000
TCW40_TEXT
1002
{
1000
Times New Roman
1070
           0
1070
         516
1002
}
  0
LINE
  5
23F
100
AcDbEntity
  8
0
370
           0
  6
DASHDOT
 62
           1
 48
0.300000011921
100
AcDbLine
 10
2.3515629704
 20
-0.0859386648
 30
0.0
 11
2.632813172
 21
-0.0859386648
 31
0.0
1001
TCAD
1000
TCW_CUSTOM_DATA
1002
{
1000
#$AUX@_ToolInfo Properties
1070
           8
1000
Insert^JLine^JSingle@Line Single
1002
}
  0
LINE
  5
240
100
AcDbEntity
  8
0
370
           0
  6
Continuous
 62
           7
 48
0.20000000298
100
AcDbLine
 10
0.5312491936
 20
1.2421867832
 30
0.0
 11
0.5312491936
 21
1.3671867832
 31
0.0
1001
TCAD
1000
TCW_CUSTOM_DATA
1002
{
1000
#$AUX@_ToolInfo Properties
1070
           8
1000
Insert^JLine^JSingle@Line Single
1002
}
  0
LINE
  5
241
100
AcDbEntity
  8
0
370
           0
  6
Continuous
 62
           7
 48
0.20000000298
100
AcDbLine
 10
0.6093741936
 20
1.2421867832
 30
0.0
 11
0.6093741936
 21
1.3671867832
 31
0.0
1001
TCAD
1000
TCW_CUSTOM_DATA
1002
{
1000
#$AUX@_ToolInfo Properties
1070
           8
1000
Insert^JLine^JSingle@Line Single
1002
}
  0
LINE
  5
242
100
AcDbEntity
  8
0
370
           0
  6
Continuous
 62
           7
 48
0.20000000298
100
AcDbLine
 10
0.7578116936
 20
0.8359367832
 30
0.0
 11
0.8203116936
 21
0.8359367832
 31
0.0
1001
TCAD
1000
TCW_CUSTOM_DATA
1002
{
1000
#$AUX@_ToolInfo Properties
1070
           8
1000
Insert^JLine^JSingle@Line Single
1002
}
  0
SOLID
  5
243
100
AcDbEntity
  8
0
  6
Continuous
 62
           7
100
AcDbTrace
 10
0.6953117832
 20
0.8984367832
 30
0.0
 11
0.75781180112
 21
0.8984367832
 31
0.0
 12
0.6953117832
 22
0.8359367832
 32
0.0
 13
0.7578116936
 23
0.8359367832
 33
0.0
  0
SOLID
  5
244
100
AcDbEntity
  8
0
  6
Continuous
 62
           9
100
AcDbTrace
 10
0.4765616264
 20
1.3671873768
 30
0.0
 11
0.445311604
 21
1.3359373544
 31
0.0
 12
0.4765616264
 22
1.3671873768
 32
0.0
 13
0.4453116936
 23
1.3671867832
 33
0.0
  0
SOLID
  5
245
100
AcDbEntity
  8
0
  6
Continuous
 62
           9
100
AcDbTrace
 10
0.6640617608
 20
1.3671873768
 30
0.0
 11
0.6953116936
 21
1.3671867832
 31
0.0
 12
0.6640617608
 22
1.3671873768
 32
0.0
 13
0.6953117832
 23
1.3359373544
 33
0.0
  0
SOLID
  5
246
100
AcDbEntity
  8
0
  6
Continuous
 62
           9
100
AcDbTrace
 10
0.476650017693
 20
0.929642621153
 30
0.0
 11
0.445311604
 21
0.9609370856
 31
0.0
 12
0.476650017693
 22
0.929642621153
 32
0.0
 13
0.4453116936
 23
0.9296867832
 33
0.0
  0
SOLID
  5
247
100
AcDbEntity
  8
0
  6
Continuous
 62
           9
100
AcDbTrace
 10
0.6640616936
 20
0.9296867832
 30
0.0
 11
0.6953117832
 21
0.9609370856
 31
0.0
 12
0.6640616936
 22
0.9296867832
 32
0.0
 13
0.6953116936
 23
0.9296867832
 33
0.0
  0
LINE
  5
248
100
AcDbEntity
  8
0
370
           0
  6
Continuous
 62
           7
 48
0.20000000298
100
AcDbLine
 10
0.4453116936
 20
1.335937444
 30
0.0
 11
0.4765610328
 21
1.3671867832
 31
0.0
1001
TCAD
1000
TCW_CUSTOM_DATA
1002
{
1000
#$AUX@_ToolInfo Properties
1070
           8
1000
Insert^JLine^JSingle@Line Single
1002
}
  0
LINE
  5
249
100
AcDbEntity
  8
0
370
           0
  6
Continuous
 62
           7
 48
0.20000000298
100
AcDbLine
 10
0.6640617608
 20
1.3671873768
 30
0.0
 11
0.6953116936
 21
1.335937444
 31
0.0
1001
TCAD
1000
TCW_CUSTOM_DATA
1002
{
1000
#$AUX@_ToolInfo Properties
1070
           8
1000
Insert^JLine^JSingle@Line Single
1002
}
  0
LINE
  5
24A
100
AcDbEntity
  8
0
370
           0
  6
Continuous
 62
           7
 48
0.20000000298
100
AcDbLine
 10
0.6953116936
 20
0.960936995999
 30
0.0
 11
0.6640616936
 21
0.9296867832
 31
0.0
1001
TCAD
1000
TCW_CUSTOM_DATA
1002
{
1000
#$AUX@_ToolInfo Properties
1070
           8
1000
Insert^JLine^JSingle@Line Single
1002
}
  0
LINE
  5
24B
100
AcDbEntity
  8
0
370
           0
  6
Continuous
 62
           7
 48
0.20000000298
100
AcDbLine
 10
0.476650017693
 20
0.929642621153
 30
0.0
 11
0.4453116936
 21
0.960936996126
 31
0.0
1001
TCAD
1000
TCW_CUSTOM_DATA
1002
{
1000
#$AUX@_ToolInfo Properties
1070
           8
1000
Insert^JLine^JSingle@Line Single
1002
}
  0
LEADER
  5
24C
100
AcDbEntity
  8
0
370
           0
  6
Continuous
 62
           7
100
AcDbLeader
  3
STANDARD
 73
           3
 74
           0
 75
           0
 40
0.0
 76
           3
 10
0.446358059531
 20
-0.314778960846
 30
0.0
 10
0.3984365704
 20
-0.3515638552
 30
0.0
 10
0.3484365704
 20
-0.3515638552
 30
0.0
 77
           7
211
0.0001
221
0.0
231
0.0
1001
TCAD
1000
TCW_CUSTOM_DATA
1002
{
1000
#$AUX@_ToolInfo Properties
1070
           8
1000
Insert^JDimension^JLeader@Dimension Leader
1002
}
1001
ACAD
1000
DSTYLE
1002
{
1002
}
  0
MTEXT
  5
24D
100
AcDbEntity
  8
0
  6
Continuous
 62
           7
100
AcDbMText
 10
0.2859365704
 20
-0.3515638552
 30
0.0
 40
0.030000000447
 41
0.0
 71
           6
 72
           1
  1
\A1;Stainless Steel{}
 73
           1
 44
1.0
1001
TCAD
1000
TCW_REFPOINT
1002
{
1010
0.2859365704
1020
-0.3515638552
1030
0.0
1002
}
1000
TCW_ATTRIBUTE
1002
{
1000
Stainless Steel
1002
}
1000
TCW40_TEXT
1002
{
1000
Times New Roman
1070
           0
1070
         516
1002
}
  0
LEADER
  5
24E
100
AcDbEntity
  8
0
370
           0
  6
Continuous
 62
           7
100
AcDbLeader
  3
STANDARD
 73
           3
 74
           0
 75
           0
 40
0.0
 76
           3
 10
0.918167256659
 20
0.105666786259
 30
0.0
 10
1.0234370184
 20
0.210936548
 30
0.0
 10
1.0734370184
 20
0.210936548
 30
0.0
 77
           7
211
0.0001
221
0.0
231
0.0
1001
TCAD
1000
TCW_CUSTOM_DATA
1002
{
1000
#$AUX@_ToolInfo Properties
1070
           8
1000
Insert^JDimension^JLeader@Dimension Leader
1002
}
1001
ACAD
1000
DSTYLE
1002
{
1002
}
  0
MTEXT
  5
24F
100
AcDbEntity
  8
0
  6
Continuous
 62
           7
100
AcDbMText
 10
1.1359370184
 20
0.210936548
 30
0.0
 40
0.030000000447
 41
0.0
 71
           4
 72
           1
  1
\A1;Brass{}
 73
           1
 44
1.0
1001
TCAD
1000
TCW_REFPOINT
1002
{
1010
1.1359370184
1020
0.210936548
1030
0.0
1002
}
1000
TCW_ATTRIBUTE
1002
{
1000
Brass
1002
}
1000
TCW40_TEXT
1002
{
1000
Times New Roman
1070
           0
1070
         513
1002
}
  0
LEADER
  5
250
100
AcDbEntity
  8
0
370
           0
  6
Continuous
 62
           7
100
AcDbLeader
  3
STANDARD
 73
           3
 74
           0
 75
           0
 40
0.0
 76
           3
 10
0.7377116984
 20
1.1905621782
 30
0.0
 10
0.8203118728
 20
1.2421872872
 30
0.0
 10
0.8703118728
 20
1.2421872872
 30
0.0
 77
           7
211
0.0001
221
0.0
231
0.0
1001
TCAD
1000
TCW_CUSTOM_DATA
1002
{
1000
#$AUX@_ToolInfo Properties
1070
           8
1000
Insert^JDimension^JLeader@Dimension Leader
1002
}
1001
ACAD
1000
DSTYLE
1002
{
1002
}
  0
MTEXT
  5
251
100
AcDbEntity
  8
0
  6
Continuous
 62
           7
100
AcDbMText
 10
0.9328118728
 20
1.2421872872
 30
0.0
 40
0.030000000447
 41
0.0
 71
           4
 72
           1
  1
\A1;Brass{}
 73
           1
 44
1.0
1001
TCAD
1000
TCW_REFPOINT
1002
{
1010
0.9328118728
1020
1.2421872872
1030
0.0
1002
}
1000
TCW_ATTRIBUTE
1002
{
1000
Brass
1002
}
1000
TCW40_TEXT
1002
{
1000
Times New Roman
1070
           0
1070
         513
1002
}
  0
LEADER
  5
252
100
AcDbEntity
  8
0
370
           0
  6
Continuous
 62
           7
100
AcDbLeader
  3
STANDARD
 73
           3
 74
           0
 75
           0
 40
0.0
 76
           3
 10
0.599373603286
 20
1.40787405036
 30
0.0
 10
0.6484367496
 20
1.4765624552
 30
0.0
 10
0.6984367496
 20
1.4765624552
 30
0.0
 77
           7
211
0.0001
221
0.0
231
0.0
1001
TCAD
1000
TCW_CUSTOM_DATA
1002
{
1000
#$AUX@_ToolInfo Properties
1070
           8
1000
Insert^JDimension^JLeader@Dimension Leader
1002
}
1001
ACAD
1000
DSTYLE
1002
{
1002
}
  0
MTEXT
  5
253
100
AcDbEntity
  8
0
  6
Continuous
 62
           7
100
AcDbMText
 10
0.7609367496
 20
1.4765624552
 30
0.0
 40
0.030000000447
 41
0.0
 71
           4
 72
           1
  1
\A1;Brass{}
 73
           1
 44
1.0
1001
TCAD
1000
TCW_REFPOINT
1002
{
1010
0.7609367496
1020
1.4765624552
1030
0.0
1002
}
1000
TCW_ATTRIBUTE
1002
{
1000
Brass
1002
}
1000
TCW40_TEXT
1002
{
1000
Times New Roman
1070
           0
1070
         513
1002
}
  0
LINE
  5
254
100
AcDbEntity
  8
0
370
           0
  6
Continuous
 62
           7
 48
0.300000011921
100
AcDbLine
 10
2.3828130376
 20
0.2265615592
 30
0.0
 11
2.5078130376
 21
0.2265615592
 31
0.0
1001
TCAD
1000
TCW_CUSTOM_DATA
1002
{
1000
#$AUX@_ToolInfo Properties
1070
           8
1000
Modify^JMeet2Lines@Meet2Lines
1002
}
  0
LINE
  5
255
100
AcDbEntity
  8
0
  6
DASHED
 62
           7
 48
0.050000000745
100
AcDbLine
 10
2.3828130152
 20
0.1640615144
 30
0.0
 11
2.4453130376
 21
0.1640615144
 31
0.0
1001
TCAD
1000
TCW_CUSTOM_DATA
1002
{
1000
#$AUX@_ToolInfo Properties
1070
           8
1000
Modify^JMeet2Lines@Meet2Lines
1002
}
  0
DIMENSION
  5
262
100
AcDbEntity
  8
0
  6
Continuous
 62
           7
100
AcDbDimension
  2
*D10
 10
2.6640631944
 20
-0.2421887768
 30
0.0
 11
2.6640631944
 21
-0.1640637208
 31
0.0
 71
           5
 72
           1
 41
1.0
 42
0.0
  1
<0.156>
  3
STANDARD
100
AcDbAlignedDimension
 13
2.6171881608
 23
-0.0859386648
 33
0.0
 14
2.5703131272
 24
-0.2421887768
 34
0.0
 50
90.0
100
AcDbRotatedDimension
1001
TCAD
1000
TCW_CUSTOM_DATA
1002
{
1000
#$AUX@_ToolInfo Properties
1070
           8
1000
Insert^JDimension^JOrthogonal@Dimension Orthogonal
1002
}
1001
ACAD
1000
DSTYLE
1002
{
1002
}
  0
LINE
  5
263
100
AcDbEntity
  8
0
  6
DASHED
 62
           7
 48
0.050000000745
100
AcDbLine
 10
1.1328120968
 20
1.744812612
 30
0.0
 11
2.2578129032
 21
1.744812612
 31
0.0
1001
TCAD
1000
TCW_CUSTOM_DATA
1002
{
1000
#$AUX@_ToolInfo Properties
1070
           8
1000
Modify^JMeet2Lines@Meet2Lines
1002
}
  0
LINE
  5
264
100
AcDbEntity
  8
0
  6
DASHED
 62
           7
 48
0.050000000745
100
AcDbLine
 10
1.1328120968
 20
1.645812612
 30
0.0
 11
2.2578129032
 21
1.645812612
 31
0.0
1001
TCAD
1000
TCW_CUSTOM_DATA
1002
{
1000
#$AUX@_ToolInfo Properties
1070
           8
1000
Modify^JMeet2Lines@Meet2Lines
1002
}
  0
LINE
  5
265
100
AcDbEntity
  8
0
  6
DASHED
 62
           7
 48
0.050000000745
100
AcDbLine
 10
2.2578129032
 20
1.744812612
 30
0.0
 11
2.2578129032
 21
1.645812612
 31
0.0
1001
TCAD
1000
TCW_CUSTOM_DATA
1002
{
1000
#$AUX@_ToolInfo Properties
1070
           8
1000
Modify^JMeet2Lines@Meet2Lines
1002
}
  0
DIMENSION
  5
272
100
AcDbEntity
  8
0
  6
Continuous
 62
           7
100
AcDbDimension
  2
*D11
 10
2.2578129032
 20
2.039687927087
 30
0.0
 11
1.6953125
 21
2.039687927087
 31
0.0
 71
           5
 72
           1
 41
1.0
 42
0.0
  1
<1.125>
  3
STANDARD
100
AcDbAlignedDimension
 13
1.1328120968
 23
1.784887617762
 33
0.0
 14
2.2578129032
 24
1.7421876456
 34
0.0
100
AcDbRotatedDimension
1001
TCAD
1000
TCW_CUSTOM_DATA
1002
{
1000
#$AUX@_ToolInfo Properties
1070
           8
1000
Insert^JDimension^JOrthogonal@Dimension Orthogonal
1002
}
1001
ACAD
1000
DSTYLE
1002
{
1002
}
  0
LINE
  5
273
100
AcDbEntity
  8
0
370
           0
  6
Continuous
 62
           7
 48
0.20000000298
100
AcDbLine
 10
2.2578129032
 20
1.744812612
 30
0.0
 11
2.268778609497
 21
1.726562612
 31
0.0
1001
TCAD
1000
TCW_CUSTOM_DATA
1002
{
1000
#$AUX@_ToolInfo Properties
1070
           8
1000
Modify^JMeet2Lines@Meet2Lines
1002
}
  0
LINE
  5
274
100
AcDbEntity
  8
0
370
           0
  6
Continuous
 62
           7
 48
0.20000000298
100
AcDbLine
 10
2.2578129032
 20
1.645812612
 30
0.0
 11
2.268778609497
 21
1.664062612
 31
0.0
1001
TCAD
1000
TCW_CUSTOM_DATA
1002
{
1000
#$AUX@_ToolInfo Properties
1070
           8
1000
Modify^JMeet2Lines@Meet2Lines
1002
}
  0
LINE
  5
275
100
AcDbEntity
  8
0
  6
DASHED
 62
           7
 48
0.050000000745
100
AcDbLine
 10
2.268778609497
 20
1.726562612
 30
0.0
 11
2.268778609497
 21
1.664062612
 31
0.0
1001
TCAD
1000
TCW_CUSTOM_DATA
1002
{
1000
#$AUX@_ToolInfo Properties
1070
           8
1000
Modify^JMeet2Lines@Meet2Lines
1002
}
  0
LINE
  5
276
100
AcDbEntity
  8
0
  6
DASHED
 62
           7
 48
0.050000000745
100
AcDbLine
 10
2.234375364
 20
1.780312612
 30
0.0
 11
2.234375364
 21
1.610312612
 31
0.0
1001
TCAD
1000
TCW_CUSTOM_DATA
1002
{
1000
#$AUX@_ToolInfo Properties
1070
           8
1000
Modify^JMeet2Lines@Meet2Lines
1002
}
  0
DIMENSION
  5
283
100
AcDbEntity
  8
0
  6
Continuous
 62
           7
100
AcDbDimension
  2
*D12
 10
2.632813172
 20
2.190486475836
 30
0.0
 11
1.8828126344
 21
2.190486475836
 31
0.0
 71
           5
 72
           1
 41
1.0
 42
0.0
  1
<1.500>
  3
STANDARD
100
AcDbAlignedDimension
 13
1.1328120968
 23
1.780312612
 33
0.0
 14
2.632813172
 24
1.780312612
 34
0.0
100
AcDbRotatedDimension
1001
TCAD
1000
TCW_CUSTOM_DATA
1002
{
1000
#$AUX@_ToolInfo Properties
1070
           8
1000
Insert^JDimension^JOrthogonal@Dimension Orthogonal
1002
}
1001
ACAD
1000
DSTYLE
1002
{
1002
}
  0
DIMENSION
  5
290
100
AcDbEntity
  8
0
  6
Continuous
 62
           7
100
AcDbDimension
  2
*D13
 10
2.203125364
 20
1.8828127464
 30
0.0
 11
1.6679687304
 21
1.8828127464
 31
0.0
 71
           5
 72
           1
 41
1.0
 42
0.0
  1
<1.070>
  3
STANDARD
100
AcDbAlignedDimension
 13
1.1328120968
 23
1.780312612
 33
0.0
 14
2.203125364
 24
1.8281252072
 34
0.0
100
AcDbRotatedDimension
1001
TCAD
1000
TCW_CUSTOM_DATA
1002
{
1000
#$AUX@_ToolInfo Properties
1070
           8
1000
Insert^JDimension^JOrthogonal@Dimension Orthogonal
1002
}
1001
ACAD
1000
DSTYLE
1002
{
1002
}
  0
DIMENSION
  5
29F
100
AcDbEntity
  8
0
  6
Continuous
 62
           7
100
AcDbDimension
  2
*D14
 10
0.9296869512
 20
1.645812612
 30
0.0
 11
0.9296869512
 21
1.695312612
 31
0.0
 71
           5
 72
           1
 41
1.0
 42
0.0
  1
drill #39    <0.099>
  3
STANDARD
100
AcDbAlignedDimension
 13
1.1328120968
 23
1.744812612
 33
0.0
 14
1.1328120968
 24
1.645812612
 34
0.0
 50
90.0
100
AcDbRotatedDimension
1001
TCAD
1000
TCW_CUSTOM_DATA
1002
{
1000
#$AUX@_ToolInfo Properties
1070
           8
1000
Insert^JDimension^JOrthogonal@Dimension Orthogonal
1002
}
1001
ACAD
1000
DSTYLE
1002
{
1002
}
  0
LINE
  5
2A0
100
AcDbEntity
  8
0
370
           0
  6
Continuous
 62
           7
 48
0.20000000298
100
AcDbLine
 10
1.1953121416
 20
1.0859371416
 30
0.0
 11
2.391185553863
 21
1.0859371416
 31
0.0
1001
TCAD
1000
TCW_CUSTOM_DATA
1002
{
1000
#$AUX@_ToolInfo Properties
1070
           8
1000
Modify^JMeet2Lines@Meet2Lines
1002
}
  0
LINE
  5
2A1
100
AcDbEntity
  8
0
370
           0
  6
Continuous
 62
           7
 48
0.20000000298
100
AcDbLine
 10
1.1953121416
 20
0.9921871416
 30
0.0
 11
2.391185553863
 21
0.9921871416
 31
0.0
1001
TCAD
1000
TCW_CUSTOM_DATA
1002
{
1000
#$AUX@_ToolInfo Properties
1070
           8
1000
Modify^JMeet2Lines@Meet2Lines
1002
}
  0
LINE
  5
2A2
100
AcDbEntity
  8
0
370
           0
  6
Continuous
 62
           7
 48
0.20000000298
100
AcDbLine
 10
2.5078121416
 20
1.0546871416
 30
0.0
 11
2.391185553863
 21
1.0859371416
 31
0.0
1001
TCAD
1000
TCW_CUSTOM_DATA
1002
{
1000
#$AUX@_ToolInfo Properties
1070
           8
1000
Modify^JMeet2Lines@Meet2Lines
1002
}
  0
LINE
  5
2A3
100
AcDbEntity
  8
0
370
           0
  6
Continuous
 62
           7
 48
0.20000000298
100
AcDbLine
 10
2.5078121416
 20
1.0234371416
 30
0.0
 11
2.391185553863
 21
0.9921871416
 31
0.0
1001
TCAD
1000
TCW_CUSTOM_DATA
1002
{
1000
#$AUX@_ToolInfo Properties
1070
           8
1000
Modify^JMeet2Lines@Meet2Lines
1002
}
  0
DIMENSION
  5
2B2
100
AcDbEntity
  8
0
  6
Continuous
 62
           7
100
AcDbDimension
  2
*D15
 10
1.0390620296
 20
0.9921871416
 30
0.0
 11
1.0390620296
 21
1.0390621416
 31
0.0
 71
           5
 72
           1
 41
1.0
 42
0.0
  1
<0.094>
  3
STANDARD
100
AcDbAlignedDimension
 13
1.1953121416
 23
1.0859371416
 33
0.0
 14
1.1953121416
 24
0.9921871416
 34
0.0
 50
90.0
100
AcDbRotatedDimension
1001
TCAD
1000
TCW_CUSTOM_DATA
1002
{
1000
#$AUX@_ToolInfo Properties
1070
           8
1000
Insert^JDimension^JOrthogonal@Dimension Orthogonal
1002
}
1001
ACAD
1000
DSTYLE
1002
{
1002
}
  0
CIRCLE
  5
2B3
100
AcDbEntity
  8
0
370
           0
  6
Continuous
 62
           7
 48
0.300000011921
100
AcDbCircle
 10
1.5078130376
 20
0.0703113352
 30
0.0
 40
0.0390625
1001
TCAD
1000
TCW_CUSTOM_DATA
1002
{
1000
#$AUX@_ToolInfo Properties
1070
           8
1000
Insert^JCircle^JCenterAndPoint@Circle CenterAndPoint
1002
}
  0
CIRCLE
  5
2B4
100
AcDbEntity
  8
0
370
           0
  6
Continuous
 62
           7
 48
0.300000011921
100
AcDbCircle
 10
1.5078130376
 20
-0.2421887768
 30
0.0
 40
0.0390625
1001
TCAD
1000
TCW_CUSTOM_DATA
1002
{
1000
#$AUX@_ToolInfo Properties
1070
           8
1000
Insert^JCircle^JCenterAndPoint@Circle CenterAndPoint
1002
}
  0
LINE
  5
2B5
100
AcDbEntity
  8
0
  6
DASHED
 62
           7
 48
0.050000000745
100
AcDbLine
 10
2.4453130376
 20
0.1093738352
 30
0.0
 11
2.5078130376
 21
0.1093738352
 31
0.0
1001
TCAD
1000
TCW_CUSTOM_DATA
1002
{
1000
#$AUX@_ToolInfo Properties
1070
           8
1000
Insert^JLine^JSingle@Line Single
1002
}
  0
LINE
  5
2B6
100
AcDbEntity
  8
0
  6
DASHED
 62
           7
 48
0.050000000745
100
AcDbLine
 10
2.4453130376
 20
0.0312488352
 30
0.0
 11
2.5078130376
 21
0.0312488352
 31
0.0
1001
TCAD
1000
TCW_CUSTOM_DATA
1002
{
1000
#$AUX@_ToolInfo Properties
1070
           8
1000
Insert^JLine^JSingle@Line Single
1002
}
  0
LINE
  5
2B7
100
AcDbEntity
  8
0
  6
DASHED
 62
           7
 48
0.050000000745
100
AcDbLine
 10
2.4453130376
 20
-0.2031262768
 30
0.0
 11
2.5078130376
 21
-0.2031262768
 31
0.0
1001
TCAD
1000
TCW_CUSTOM_DATA
1002
{
1000
#$AUX@_ToolInfo Properties
1070
           8
1000
Insert^JLine^JSingle@Line Single
1002
}
  0
LINE
  5
2B8
100
AcDbEntity
  8
0
  6
DASHED
 62
           7
 48
0.050000000745
100
AcDbLine
 10
2.4453130376
 20
-0.2812512768
 30
0.0
 11
2.5078130376
 21
-0.2812512768
 31
0.0
1001
TCAD
1000
TCW_CUSTOM_DATA
1002
{
1000
#$AUX@_ToolInfo Properties
1070
           8
1000
Insert^JLine^JSingle@Line Single
1002
}
  0
TEXT
  5
2B9
100
AcDbEntity
  8
0
  6
Continuous
 62
           7
100
AcDbText
 10
0.65020144843
 20
-0.7390640792
 30
0.0
 40
0.15
  1
Miniature Oiler  - 5/8 x 1-3/4 in.
 11
0.65020144843
 21
-0.5890640792
 31
0.0
100
AcDbText
 73
           3
1001
TCAD
1000
TCW_CUSTOM_DATA
1002
{
1000
#$AUX@_ToolInfo Properties
1070
           8
1000
Insert^JText@Text
1002
}
1000
TCW40_TEXT
1002
{
1000
Times New Roman
1070
           0
1070
         257
1002
}
  0
CIRCLE
  5
2BA
100
AcDbEntity
  8
0
370
           0
  6
Continuous
 62
           7
 48
0.300000011921
100
AcDbCircle
 10
3.3828137096
 20
-0.0859386648
 30
0.0
 40
0.047
1001
TCAD
1000
TCW_CUSTOM_DATA
1002
{
1000
#$AUX@_ToolInfo Properties
1070
           8
1000
Insert^JCircle^JCenterAndPoint@Circle CenterAndPoint
1002
}
  0
DIMENSION
  5
2C8
100
AcDbEntity
  8
0
  6
Continuous
 62
           7
100
AcDbDimension
  2
*D16
 10
3.430085657178
 20
0.7421869736
 30
0.0
 11
3.7109388328
 21
0.7421869736
 31
0.0
 71
           5
 72
           1
 41
1.0
 42
0.0
  1
<0.094>
  3
STANDARD
100
AcDbAlignedDimension
 13
3.336335589978
 23
0.617186884
 33
0.0
 14
3.430085657178
 24
0.617186884
 34
0.0
100
AcDbRotatedDimension
1001
TCAD
1000
TCW_CUSTOM_DATA
1002
{
1000
#$AUX@_ToolInfo Properties
1070
           8
1000
Insert^JDimension^JOrthogonal@Dimension Orthogonal
1002
}
1001
ACAD
1000
DSTYLE
1002
{
1070
         174
1070
           0
1002
}
  0
LINE
  5
2C9
100
AcDbEntity
  8
0
370
           0
  6
DASHED
 62
           7
 48
0.20000000298
100
AcDbLine
 10
3.335938676
 20
0.5390615592
 30
0.0
 11
3.335938676
 21
0.6640618728
 31
0.0
1001
TCAD
1000
TCW_CUSTOM_DATA
1002
{
1000
#$AUX@_ToolInfo Properties
1070
           8
1000
Insert^JLine^JSingle@Line Single
1002
}
  0
LINE
  5
2CA
100
AcDbEntity
  8
0
370
           0
  6
DASHED
 62
           7
 48
0.20000000298
100
AcDbLine
 10
3.4296887432
 20
0.5390615592
 30
0.0
 11
3.4296887432
 21
0.6640618728
 31
0.0
1001
TCAD
1000
TCW_CUSTOM_DATA
1002
{
1000
#$AUX@_ToolInfo Properties
1070
           8
1000
Insert^JLine^JSingle@Line Single
1002
}
  0
LINE
  5
2CB
100
AcDbEntity
  8
0
370
           0
  6
DASHED
 62
           7
 48
0.20000000298
100
AcDbLine
 10
1.1328120968
 20
1.773437668
 30
0.0
 11
2.632813172
 21
1.773437668
 31
0.0
1001
TCAD
1000
TCW_CUSTOM_DATA
1002
{
1000
#$AUX@_ToolInfo Properties
1070
           8
1000
Insert^JLine^JSingle@Line Single
1002
}
  0
LINE
  5
2CC
100
AcDbEntity
  8
0
370
           0
  6
DASHED
 62
           7
 48
0.20000000298
100
AcDbLine
 10
1.1328120968
 20
1.617187556
 30
0.0
 11
2.632813172
 21
1.617187556
 31
0.0
1001
TCAD
1000
TCW_CUSTOM_DATA
1002
{
1000
#$AUX@_ToolInfo Properties
1070
           8
1000
Insert^JLine^JSingle@Line Single
1002
}
  0
ENDSEC
  0
SECTION
  2
OBJECTS
  0
DICTIONARY
  5
19
100
AcDbDictionary
280
           0
281
           1
  3
ACAD_GROUP
350
1A
  3
ACAD_MLINESTYLE
350
1B
  3
ACAD_LAYOUT
350
1E
  3
ACAD_PLOTSETTINGS
350
22
  3
ACAD_PLOTSTYLENAME
350
1F
  0
DICTIONARY
  5
1A
102
{ACAD_REACTORS
330
19
102
}
100
AcDbDictionary
280
           0
281
           1
  0
DICTIONARY
  5
1B
102
{ACAD_REACTORS
330
19
102
}
100
AcDbDictionary
280
           0
281
           1
  3
Standard
350
1C
  0
MLINESTYLE
  5
1C
100
AcDbMlineStyle
  2
STANDARD
 70
           0
  3

 62
         256
 51
90.0
 52
90.0
 71
           3
 49
0.25
 62
           7
  6
ByLayer
 49
0.0
 62
           7
  6
ByLayer
 49
-0.25
 62
           7
  6
ByLayer
  0
ACDBDICTIONARYWDFLT
  5
1F
102
{ACAD_REACTORS
330
19
102
}
100
AcDbDictionary
281
           1
  3
Normal
350
1D
100
AcDbDictionaryWithDefault
340
1D
  0
ACDBPLACEHOLDER
  5
1D
102
{ACAD_REACTORS
330
1F
102
}
  0
LAYOUT
  5
21
102
{ACAD_REACTORS
330
1E
102
}
100
AcDbPlotSettings
  1

  2

  4

  6

 40
0.0
 41
0.0
 42
0.0
 43
0.0
 44
0.0
 45
0.0
 46
0.0
 47
0.0
 48
0.0
 49
0.0
140
0.0
141
0.0
142
1.0
143
1.0
 70
           0
 72
           0
 73
           0
 74
           0
  7

 75
           0
147
1.0
148
0.0
149
0.0
100
AcDbLayout
  1
Layout1
 70
           0
 71
           0
 10
0.0
 20
0.0
 11
0.0
 21
0.0
 12
0.0
 22
0.0
 32
0.0
 14
0.0
 24
0.0
 34
0.0
 15
0.0
 25
0.0
 35
0.0
146
0.0
 13
0.0
 23
0.0
 33
0.0
 16
0.0
 26
0.0
 36
0.0
 17
0.0
 27
0.0
 37
0.0
 76
           0
330
B
331
0
345
0
346
0
  0
DICTIONARY
  5
1E
102
{ACAD_REACTORS
330
19
102
}
100
AcDbDictionary
280
           0
281
           1
  3
Model
350
2CD
  3
Paper 1
350
2CE
  0
DICTIONARY
  5
22
102
{ACAD_REACTORS
330
19
102
}
100
AcDbDictionary
280
           0
281
           1
  0
LAYOUT
  5
2CD
100
AcDbPlotSettings
  1

  2

  4

  6

 40
0.0
 41
0.0
 42
0.0
 43
0.0
 44
0.0
 45
0.0
 46
0.0
 47
0.0
 48
0.0
 49
0.0
140
0.0
141
0.0
142
1.0
143
1.0
 70
           0
 72
           0
 73
           0
 74
           0
  7

 75
           0
147
1.0
148
0.0
149
0.0
100
AcDbLayout
  1
Model
 70
           0
 71
           0
 10
0.0
 20
0.0
 11
0.0
 21
0.0
 12
0.0
 22
0.0
 32
0.0
 14
0.0
 24
0.0
 34
0.0
 15
0.0
 25
0.0
 35
0.0
146
0.0
 13
0.0
 23
0.0
 33
0.0
 16
0.0
 26
0.0
 36
0.0
 17
0.0
 27
0.0
 37
0.0
 76
           0
330
A
331
0
345
0
346
0
  0
LAYOUT
  5
2CE
100
AcDbPlotSettings
  1

  2
none_device
  4

  6

 40
12.7
 41
12.7
 42
12.7
 43
12.7
 44
0.0
 45
0.0
 46
-12.7
 47
-12.7
 48
0.0
 49
0.0
140
0.0
141
0.0
142
1.0
143
1.0
 70
           0
 72
           0
 73
           0
 74
           0
  7

 75
           0
147
1.0
148
0.0
149
0.0
100
AcDbLayout
  1
Paper 1
 70
           1
 71
           1
 10
0.0
 20
0.0
 11
0.0
 21
0.0
 12
0.0
 22
0.0
 32
0.0
 14
0.0
 24
0.0
 34
0.0
 15
0.0
 25
0.0
 35
0.0
146
0.0
 13
0.0
 23
0.0
 33
0.0
 16
0.0
 26
0.0
 36
0.0
 17
0.0
 27
0.0
 37
0.0
 76
           0
330
B
331
0
345
0
346
0
  0
ENDSEC
  0
EOF
